找回密码

查看: 952|回复: 0

[其他] 耶路撒冷 Jerusalem.2013.1080p.BluRay.x264-PSYCHD 4.37GB

[复制链接]
蓝光币
2039
发表于 2020-9-17 10:45:36 | 显示全部楼层 |阅读模式


◎译  名 耶路撒冷
◎片  名 Jerusalem
◎年  代 2013
◎产  地 美国/加拿大
◎类  别 记载片
◎语  言 英语
◎上映日期 
◎IMDb评分  7.3/10 from 1144 users
◎IMDb链接  https://www.imdb.com/title/tt2385006/
◎豆瓣评分 8.4/10 from 2482 users
◎豆瓣链接 https://movie.douban.com/subject/24379816/
◎片  长 45分钟
◎导  演 丹尼尔·弗格森 Daniel Ferguson
◎编  剧 丹尼尔·弗格森 Daniel Ferguson
◎主  演 本尼迪克特·康伯巴奇 Benedict Cumberbatch
◎标  签 记载片 | 耶路撒冷 | 宗教 | BBC | 美国 | BenedictCumberbatch | 2013 | 英国
◎简  介


  JERUSALEM takes audiences on an inspiring and eye-opening tour of one of the worlds oldest and most enigmatic cities. Destroyed and rebuilt countless times over 5000 years, Jerusalems enduring appeal remains a mystery. What made it so important to so many different cultures? How did it become the center of the world for three major religions? Why does it still matter to us?
  
  JERUSALEM attempts to answer these questions by following three young Jerusalemites and their families Jewish, Christian and Muslim. Through their eyes, audiences will learn what it means to call Jerusalem home, and experience celebrations and events that mark the high points of a year in the life of the city.
  
  JERUSALEM will also follow archaeologists, Dr. Jodi Magness and Dr. Nazmi al-Jubeh, as they explore some of the most extraordinary historical sites in the region in order to better understand this crossroads of civilization.
  
  JERUSALEM seeks to build trust and respect between Jews, Christians and Muslims by showcasing their common heritage and inspiring them, and the public, to better understand each other. Audiences will gain a completely unique perspective of a part of the world that captivates the imagination of billions of people.
  
  JERUSALEM's producers include multiple Oscar winner, Jake Eberts (Gandhi, Dances With Wolves, The Killing Fields), and Taran Davies (Journey to Mecca), and George Duffield (The End of the Line). Daniel Ferguson (Lost Worlds, Wired to Win: Surviving the Tour de France) is writer, director and producer. Dominic Cunningham Reid (Journey to Mecca) is executive producer.
  1. Video
  2. ID                                       : 1
  3. Format                                   : AVC
  4. Format/Info                              : Advanced Video Codec
  5. Format profile                           : [email protected]
  6. Format settings                          : CABAC / 4 Ref Frames
  7. Format settings, CABAC                   : Yes
  8. Format settings, Reference frames        : 4 frames
  9. Codec ID                                 : V_MPEG4/ISO/AVC
  10. Duration                                 : 44 min 15 s
  11. Bit rate                                 : 12.6 Mb/s
  12. Width                                    : 1 920 pixels
  13. Height                                   : 1 080 pixels
  14. Display aspect ratio                     : 16:9
  15. Frame rate mode                          : Constant
  16. Frame rate                               : 23.976 (24000/1001/189150) FPS
  17. Color space                              : YUV
  18. Chroma subsampling                       : 4:2:0
  19. Bit depth                                : 8 bits
  20. Scan type                                : Progressive
  21. Bits/(Pixel*Frame)                       : 0.254
  22. Stream size                              : 3.81 GiB (87%)
  23. Writing library                          : x264 core 148 r2638 7599210
  24. Encoding settings                        : cabac=1 / ref=4 / deblock=1:-3:-3 / analyse=0x3:0x113 / me=umh / subme=8 / psy=1 / psy_rd=1.00:0.00 / mixed_ref=1 / me_range=16 / chroma_me=1 / trellis=1 / 8x8dct=1 / cqm=0 / deadzone=21,11 / fast_pskip=1 / chroma_qp_offset=-2 / threads=24 / lookahead_threads=4 / sliced_threads=0 / nr=0 / decimate=1 / interlaced=0 / bluray_compat=0 / constrained_intra=0 / bframes=3 / b_pyramid=2 / b_adapt=2 / b_bias=0 / direct=3 / weightb=1 / open_gop=0 / weightp=2 / keyint=240 / keyint_min=24 / scenecut=40 / intra_refresh=0 / rc_lookahead=50 / rc=2pass / mbtree=1 / bitrate=12618 / ratetol=1.0 / qcomp=0.60 / qpmin=0 / qpmax=69 / qpstep=4 / cplxblur=20.0 / qblur=0.5 / ip_ratio=1.40 / aq=1:1.00
  25. Language                                 : English
  26. Default                                  : Yes
  27. Forced                                   : No
  28. Statistics Tags Issue                    : no_variable_data 1970-01-01 00:00:00 / no_variable_data 2010-02-22 21:41:29
  29. FromStats_BitRate                        : 12614047
  30. FromStats_Duration                       : 00:44:15.695000000
  31. FromStats_FrameCount                     : 63673
  32. FromStats_StreamSize                     : 4187382752

  33. Audio
  34. ID                                       : 2
  35. Format                                   : DTS
  36. Format/Info                              : Digital Theater Systems
  37. Codec ID                                 : A_DTS
  38. Duration                                 : 44 min 15 s
  39. Bit rate mode                            : Constant
  40. Bit rate                                 : 1 509 kb/s
  41. Channel(s)                               : 6 channels
  42. Channel layout                           : C L R Ls Rs LFE
  43. Sampling rate                            : 48.0 kHz
  44. Frame rate                               : 93.750 FPS (512 SPF)
  45. Bit depth                                : 24 bits
  46. Compression mode                         : Lossy
  47. Stream size                              : 478 MiB (11%)
  48. Language                                 : English
  49. Default                                  : Yes
  50. Forced                                   : No
  51. Statistics Tags Issue                    : no_variable_data 1970-01-01 00:00:00 / no_variable_data 2010-02-22 21:41:29
  52. FromStats_BitRate                        : 1508999
  53. FromStats_Duration                       : 00:44:15.702000000
  54. FromStats_FrameCount                     : 248972
  55. FromStats_StreamSize                     : 500931664

  56. Text
  57. ID                                       : 3
  58. Format                                   : UTF-8
  59. Codec ID                                 : S_TEXT/UTF8
  60. Codec ID/Info                            : UTF-8 Plain Text
  61. Language                                 : English
  62. Default                                  : No
  63. Forced                                   : No
  64. Statistics Tags Issue                    : no_variable_data 1970-01-01 00:00:00 / no_variable_data 2010-02-22 21:41:29
  65. FromStats_BitRate                        : 44
  66. FromStats_Duration                       : 00:40:46.276000000
  67. FromStats_FrameCount                     : 288
  68. FromStats_StreamSize                     : 13725

  69. Menu
  70. 00:00:00.000                             : en:00:00:00.000
  71. 00:03:25.163                             : en:00:03:25.163
  72. 00:09:23.062                             : en:00:09:23.062
  73. 00:12:34.379                             : en:00:12:34.379
  74. 00:17:20.331                             : en:00:17:20.331
  75. 00:22:58.127                             : en:00:22:58.127
  76. 00:29:17.839                             : en:00:29:17.839
  77. 00:36:36.778                             : en:00:36:36.778
  78. 00:39:16.521                             : en:00:39:16.521
  79. 00:42:11.154                             : en:00:42:11.154
复制代码








                                       
                                       

                                       
                                       
                                       




相关帖子

回复

使用道具 举报

懒得打字嘛,点击右侧快捷回复 【右侧内容,后台自定义】
您需要登录后才可以回帖 登录 | 立即加入

本版积分规则

Archiver| |网站地图

Copyright © 2024 Comsenz Inc. Powered by 蓝光电影网

本站内容由用户自主分享和转载自互联网,转载目的在于传递更多信息,并不代表本网赞同其观点和对其真实性负责。

如有侵权、违反国家法律政策行为,请联系我们,我们会第一时间及时清除和处理!

举报反馈邮箱:4k1080.com@gmail.com

快速回复 返回顶部 返回列表