找回密码

查看: 950|回复: 0

[其他] 第四公民/四号公民 Citizenfour.2014.LIMITED.1080p.BluRay.x264-PSYCHD 7.94GB

[复制链接]
蓝光币
2048
发表于 2020-9-17 10:37:58 | 显示全部楼层 |阅读模式


◎译  名 第四百姓/四号百姓
◎片  名 Citizenfour
◎年  代 2014
◎产  地 美国,德国,英国
◎类  别 记载片 / 列传
◎语  言 英语,葡萄牙语,德语
◎上映日期 2014-10-10(纽约电影节) / 2014-10-24(美国)
◎IMDb评分  8/10 from 51408 users
◎IMDb链接  https://www.imdb.com/title/tt4044364/
◎豆瓣评分 8.4/10 from 21428 users
◎豆瓣链接 https://movie.douban.com/subject/26059437/
◎片  长 114分钟
◎导  演 劳拉·珀特拉斯 Laura Poitras
◎主  演 爱德华·斯诺登 Edward Snowden
       朱利安·阿桑奇 Julian Assange
       杰里米·斯卡希尔 Jeremy Scahill
       威廉·宾尼 William Binney
       雅各布·阿佩尔鲍姆 Jacob Appelbaum
       伊文·麦克阿斯基尔 Ewen MacAskill
       格兰·格林沃德 Glenn Greenwald
       巴拉克·奥巴马 Barack Obama
◎标  签 记载片 | 美国 | 政治 | EdwardSnowden | 2014 | 列传 | 德国 | Documentary
◎简  介


  《第四百姓》将能高度复原“棱镜门”事务委曲,为观众实在揭秘身处漩涡中心的爱德华·斯诺登。
  
  记载片导演柏翠丝本人也是“棱镜门”事务的焦点人物,正是在她和《卫报》记者格仑·格林沃德的辅佐下,斯诺登才得以将美国国家平安局的监控丑闻公之于众。而柏翠丝与格林沃德也是以荣获普利策奖。片名“第四百姓”(citizen four)正是斯诺登早期与柏翠丝邮件相同时利用的匿名代号。2013年6月,当柏翠丝第一次飞往香港与斯诺登碰头的时辰,她随身照顾的摄像机也实在记录了那时的场景。《第四百姓》将能高度复原“棱镜门”事务委曲,为观众实在揭秘身处漩涡中心的爱德华·斯诺登。
◎获奖情况
  第87届奥斯卡金像奖 ?(2015)
  最好记载长片 德克·维卢茨基?/?玛蒂尔德·鲍尼福伊?/?劳拉·珀特拉斯
  
  第67届美国导演工会奖 ?(2015)
  最好记载片导演 劳拉·珀特拉斯
  
  第80届纽约影评人协会奖 ?(2014)
  最好记载片
  最好记载片(提名)
  
  第30届美国自力精神奖 ?(2015)
  最好记载片 德克·维卢茨基?/?玛蒂尔德·鲍尼福伊?/?劳拉·珀特拉斯
  
  第24届哥谭自力电影奖 ?(2014)
  最好记载片 萨拉·伯恩斯坦?/?德克·维卢茨基?/?玛蒂尔德·鲍尼福伊?/?劳拉·珀特拉斯
  
  第13届华盛顿影评人协会奖 ?(2014)
  最好记载片(提名)
  
  第35届波士顿影评人协会奖 ?(2014)
  最好记载片
  
  第40届洛杉矶影评人协会奖 ?(2014)
  最好记载片 劳拉·珀特拉斯
  
  第27届芝加哥影评人协会奖 ?(2014)
  最好记载片(提名)
  
  第18届美国在线影评人协会奖 ?(2014)
  最好记载片(提名)
  
  第5届豆瓣电影鑫像奖 ?(2015)
  鑫豆单元最好记载长片
  1. Video
  2. ID                                       : 1
  3. Format                                   : AVC
  4. Format/Info                              : Advanced Video Codec
  5. Format profile                           : [email protected]
  6. Format settings                          : CABAC / 4 Ref Frames
  7. Format settings, CABAC                   : Yes
  8. Format settings, Reference frames        : 4 frames
  9. Codec ID                                 : V_MPEG4/ISO/AVC
  10. Duration                                 : 1 h 53 min
  11. Bit rate                                 : 8 510 kb/s
  12. Width                                    : 1 920 pixels
  13. Height                                   : 1 080 pixels
  14. Display aspect ratio                     : 16:9
  15. Frame rate mode                          : Constant
  16. Frame rate                               : 23.976 (24000/1001/189150) FPS
  17. Color space                              : YUV
  18. Chroma subsampling                       : 4:2:0
  19. Bit depth                                : 8 bits
  20. Scan type                                : Progressive
  21. Bits/(Pixel*Frame)                       : 0.171
  22. Stream size                              : 6.74 GiB (85%)
  23. Writing library                          : x264 core 148 r2579 73ae2d1
  24. Encoding settings                        : cabac=1 / ref=4 / deblock=1:-3:-3 / analyse=0x3:0x113 / me=umh / subme=8 / psy=1 / psy_rd=1.00:0.00 / mixed_ref=1 / me_range=16 / chroma_me=1 / trellis=1 / 8x8dct=1 / cqm=0 / deadzone=21,11 / fast_pskip=1 / chroma_qp_offset=-2 / threads=24 / lookahead_threads=4 / sliced_threads=0 / nr=0 / decimate=1 / interlaced=0 / bluray_compat=0 / constrained_intra=0 / bframes=3 / b_pyramid=2 / b_adapt=2 / b_bias=0 / direct=3 / weightb=1 / open_gop=0 / weightp=2 / keyint=240 / keyint_min=24 / scenecut=40 / intra_refresh=0 / rc_lookahead=50 / rc=2pass / mbtree=1 / bitrate=8510 / ratetol=1.0 / qcomp=0.60 / qpmin=0 / qpmax=69 / qpstep=4 / cplxblur=20.0 / qblur=0.5 / ip_ratio=1.40 / aq=1:1.00
  25. Language                                 : English
  26. Default                                  : Yes
  27. Forced                                   : No

  28. Audio
  29. ID                                       : 2
  30. Format                                   : DTS
  31. Format/Info                              : Digital Theater Systems
  32. Codec ID                                 : A_DTS
  33. Duration                                 : 1 h 53 min
  34. Bit rate mode                            : Constant
  35. Bit rate                                 : 1 509 kb/s
  36. Channel(s)                               : 6 channels
  37. Channel layout                           : C L R Ls Rs LFE
  38. Sampling rate                            : 48.0 kHz
  39. Frame rate                               : 93.750 FPS (512 SPF)
  40. Bit depth                                : 24 bits
  41. Compression mode                         : Lossy
  42. Stream size                              : 1.20 GiB (15%)
  43. Language                                 : English
  44. Default                                  : Yes
  45. Forced                                   : No

  46. Text #1
  47. ID                                       : 3
  48. Format                                   : UTF-8
  49. Codec ID                                 : S_TEXT/UTF8
  50. Codec ID/Info                            : UTF-8 Plain Text
  51. Duration                                 : 27 min 5 s
  52. Bit rate                                 : 26 b/s
  53. Count of elements                        : 128
  54. Stream size                              : 5.32 KiB (0%)
  55. Title                                    : Forced
  56. Language                                 : English
  57. Default                                  : Yes
  58. Forced                                   : Yes

  59. Text #2
  60. ID                                       : 4
  61. Format                                   : UTF-8
  62. Codec ID                                 : S_TEXT/UTF8
  63. Codec ID/Info                            : UTF-8 Plain Text
  64. Duration                                 : 1 h 49 min
  65. Bit rate                                 : 94 b/s
  66. Count of elements                        : 1814
  67. Stream size                              : 75.7 KiB (0%)
  68. Language                                 : English
  69. Default                                  : No
  70. Forced                                   : No

  71. Text #3
  72. ID                                       : 5
  73. Format                                   : UTF-8
  74. Codec ID                                 : S_TEXT/UTF8
  75. Codec ID/Info                            : UTF-8 Plain Text
  76. Duration                                 : 1 h 49 min
  77. Bit rate                                 : 98 b/s
  78. Count of elements                        : 1853
  79. Stream size                              : 78.6 KiB (0%)
  80. Title                                    : SDH
  81. Language                                 : English
  82. Default                                  : No
  83. Forced                                   : No

  84. Menu
  85. 00:00:00.000                             : en:00:00:00.000
  86. 00:05:27.827                             : en:00:05:27.827
  87. 00:12:07.852                             : en:00:12:07.852
  88. 00:20:58.716                             : en:00:20:58.716
  89. 00:27:41.076                             : en:00:27:41.076
  90. 00:35:22.287                             : en:00:35:22.287
  91. 00:44:17.280                             : en:00:44:17.280
  92. 00:52:36.737                             : en:00:52:36.737
  93. 01:01:36.359                             : en:01:01:36.359
  94. 01:08:40.491                             : en:01:08:40.491
  95. 01:15:32.778                             : en:01:15:32.778
  96. 01:21:11.992                             : en:01:21:11.992
  97. 01:30:01.855                             : en:01:30:01.855
  98. 01:34:51.769                             : en:01:34:51.769
  99. 01:42:47.328                             : en:01:42:47.328
  100. 01:50:19.905                             : en:01:50:19.905
复制代码









                                       
                                       

                                       
                                       
                                       




回复

使用道具 举报

懒得打字嘛,点击右侧快捷回复 【右侧内容,后台自定义】
您需要登录后才可以回帖 登录 | 立即加入

本版积分规则

Archiver| |网站地图

Copyright © 2024 Comsenz Inc. Powered by 蓝光电影网

本站内容由用户自主分享和转载自互联网,转载目的在于传递更多信息,并不代表本网赞同其观点和对其真实性负责。

如有侵权、违反国家法律政策行为,请联系我们,我们会第一时间及时清除和处理!

举报反馈邮箱:4k1080.com@gmail.com

快速回复 返回顶部 返回列表