找回密码

查看: 1147|回复: 0

[动作] 雷霆沙赞! Shazam.2019.1080p.BluRay.x264.TrueHD.7.1.Atmos-FGT 14.80GB

[复制链接]
蓝光币
2048
发表于 2019-6-27 16:18:01 | 显示全部楼层 |阅读模式


◎译  名 雷霆沙赞! / Billy Batson and the Legend of Shazam! / Franklin / 奇迹队长 / 沙赞 / 沙赞!(台) / 沙赞!神力集结(港) / 奇异上尉 / 雷霆沙赞
◎片  名 Shazam!
◎年  代 2019
◎产  地 美国
◎类  别 行动 / 奇异 / 冒险
◎语  言 英语
◎上映日期 2019-04-05(美国/中国大陆)
◎IMDb评分  7.5/10 from 100273 users
◎IMDb链接  http://www.imdb.com/title/tt0448115
◎豆瓣评分 6.6/10 from 110901 users
◎豆瓣链接 https://movie.douban.com/subject/2244426/
◎片  长 132分钟
◎导  演 大卫·F·桑德伯格 David F. Sandberg
◎编  剧 亨利·盖登 Henry Gayden / 达伦·莱姆克 Darren Lemke / 比尔·帕克 Bill Parker / C·C·贝克 C.C. Beck
◎主  演 扎克瑞·莱维 Zachary Levi
      马克·斯特朗 Mark Strong
      亚瑟·安其 Asher Angel
      杰克·迪伦·格雷泽 Jack Dylan Grazer
      杰曼·翰苏 Djimon Hounsou
      费滋·赫尔曼 Faithe Herman
      约文·阿曼德 Jovan Armand
      陈琦烨 Ian Chen
      格蕾丝·富尔顿 Grace Fulton
      亚当·布罗迪 Adam Brody
      梅根·古德 Meagan Good
      米歇尔·博斯 Michelle Borth
      罗斯·巴特勒 Ross Butler
      马尔塔·米兰斯 Marta Milans
      库珀·安德鲁斯 Cooper Andrews
      罗维娜·亚瓦里 Lovina Yavari
      埃文·马什 Evan Marsh
      娜塔莉亚姗福瑞 Natalia Safran
      D·J·科特罗纳 D.J. Cotrona
      艾娃·普雷斯顿 Ava Preston
      安迪·奥修 Andi Osho
      卡尔森·迈克马克 Carson MacCormac
      莎伊娜·瑞恩 Shayna Ryan
      莎拉·贝纳尼 Sarah Bennani
      安吉莉卡·利斯克 Angelica Lisk
      辛迪·戴 Cyndy Day
      洛塔·洛森 Lotta Losten
      西蒙·诺斯伍德 Simon Northwood
      戴维·科赫史姑娘 David Kohlsmith
      卢·卢·萨夫兰 Lou Lou Safran
      Adam Rodness
      杰夫·桑卡 Jeff Sanca
      阿里·巴德沙阿 Ali Badshah
      大卫·J·麦克尼尔 David J. MacNeil
      达娜·雷兹尼克 Dana Reznik
      迪索·拉莫斯 Diezel Ramos

◎标  签 DC | 超级豪杰 | 沙雕 | 美国 | 笑剧 | 漫画改编 | 2019 | 科幻
◎简  介  
  因儿时与母亲失散,少年比利(亚瑟·安其 Asher Angel 饰)辗转多个家庭,却固执地要回到妈妈身旁。当他再度居住一个由养子养女的大师庭时,却鬼使神差来到某个未知的范畴,而且成为陈腐巫师的继续人。当他喊出“沙赞”时,便会瞬间酿成具有强健成年人身材的超级豪杰雷霆沙赞(扎克瑞·莱维 Zachary Levi 饰)。比利兴奋不已,和新家的兄弟——得了腿部残疾的弗雷迪(杰克·迪伦·格雷泽 Jack Dylan Grazer 饰)配合分享这份欢畅,两人更将展现各类超才能的视频上传收集,流布四方。成果,包藏祸心的赛迪斯·希瓦纳博士(马克·斯特朗 Mark Strong 饰)找上门来。
希瓦纳童年时曾与沙赞身份失之交臂,一向不受父亲兄长待见的他将灵魂出售给七宗罪魔鬼,他更诡计摧毁阿谁让他求之不得又恨之入骨的雷霆沙赞……
  1. Video
  2. ID                                       : 1
  3. Format                                   : AVC
  4. Format/Info                              : Advanced Video Codec
  5. Format profile                           : [email protected]
  6. Format settings                          : CABAC / 4 Ref Frames
  7. Format settings, CABAC                   : Yes
  8. Format settings, ReFrames                : 4 frames
  9. Codec ID                                 : V_MPEG4/ISO/AVC
  10. Duration                                 : 2 h 11 min
  11. Bit rate                                 : 11.5 Mb/s
  12. Width                                    : 1 920 pixels
  13. Height                                   : 804 pixels
  14. Display aspect ratio                     : 2.40:1
  15. Frame rate mode                          : Constant
  16. Frame rate                               : 23.976 (24000/1001) FPS
  17. Color space                              : YUV
  18. Chroma subsampling                       : 4:2:0
  19. Bit depth                                : 8 bits
  20. Scan type                                : Progressive
  21. Bits/(Pixel*Frame)                       : 0.311
  22. Stream size                              : 10.6 GiB (71%)
  23. Title                                    : Shazam.2019.1080p.BluRay.x264.TrueHD.7.1.Atmos-FGT
  24. Writing library                          : x264 core 148 r2795M aaa9aa8
  25. Encoding settings                        : cabac=1 / ref=4 / deblock=1:-2:-2 / analyse=0x3:0x113 / me=umh / subme=9 / psy=1 / psy_rd=1.00:0.15 / mixed_ref=1 / me_range=16 / chroma_me=1 / trellis=2 / 8x8dct=1 / cqm=0 / deadzone=21,11 / fast_pskip=1 / chroma_qp_offset=-3 / threads=24 / lookahead_threads=3 / sliced_threads=0 / nr=0 / decimate=1 / interlaced=0 / bluray_compat=0 / constrained_intra=0 / bframes=3 / b_pyramid=2 / b_adapt=1 / b_bias=0 / direct=3 / weightb=1 / open_gop=0 / weightp=2 / keyint=250 / keyint_min=25 / scenecut=40 / intra_refresh=0 / rc_lookahead=50 / rc=2pass / mbtree=1 / bitrate=11500 / ratetol=1.0 / qcomp=0.60 / qpmin=0 / qpmax=69 / qpstep=4 / cplxblur=20.0 / qblur=0.5 / vbv_maxrate=31250 / vbv_bufsize=31250 / nal_hrd=none / filler=0 / ip_ratio=1.40 / aq=1:1.00
  26. Language                                 : English
  27. Default                                  : Yes
  28. Forced                                   : No
  29. Audio #1
  30. ID                                       : 2
  31. Format                                   : MLP FBA 16-ch
  32. Format/Info                              : Meridian Lossless Packing FBA with 16-channel presentation
  33. Commercial name                          : Dolby TrueHD with Dolby Atmos
  34. Codec ID                                 : A_TRUEHD
  35. Duration                                 : 2 h 11 min
  36. Bit rate mode                            : Variable
  37. Bit rate                                 : 3 645 kb/s
  38. Maximum bit rate                         : 5 931 kb/s
  39. Channel(s)                               : 8 channels
  40. Channel layout                           : L R C LFE Ls Rs Lb Rb
  41. Sampling rate                            : 48.0 kHz
  42. Frame rate                               : 1 200.000 FPS (40 SPF)
  43. Compression mode                         : Lossless
  44. Stream size                              : 3.35 GiB (23%)
  45. Title                                    : Shazam.2019.1080p.BluRay.x264.TrueHD.7.1.Atmos-FGT
  46. Language                                 : English
  47. Default                                  : Yes
  48. Forced                                   : No
  49. Number of dynamic objects                : 15
  50. Bed channel count                        : 1 channel
  51. Bed channel configuration                : LFE
  52. Audio #2
  53. ID                                       : 3
  54. Format                                   : AC-3
  55. Format/Info                              : Audio Coding 3
  56. Commercial name                          : Dolby Digital
  57. Codec ID                                 : A_AC3
  58. Duration                                 : 2 h 11 min
  59. Bit rate mode                            : Constant
  60. Bit rate                                 : 640 kb/s
  61. Channel(s)                               : 6 channels
  62. Channel layout                           : L R C LFE Ls Rs
  63. Sampling rate                            : 48.0 kHz
  64. Frame rate                               : 31.250 FPS (1536 SPF)
  65. Bit depth                                : 16 bits
  66. Compression mode                         : Lossy
  67. Stream size                              : 603 MiB (4%)
  68. Title                                    : Shazam.2019.1080p.BluRay.x264.TrueHD.7.1.Atmos-FGT
  69. Service kind                             : Complete Main
  70. Default                                  : No
  71. Forced                                   : No
  72. Text #1
  73. ID                                       : 4
  74. Format                                   : UTF-8
  75. Codec ID                                 : S_TEXT/UTF8
  76. Codec ID/Info                            : UTF-8 Plain Text
  77. Duration                                 : 2 h 10 min
  78. Bit rate                                 : 52 b/s
  79. Count of elements                        : 1755
  80. Stream size                              : 50.2 KiB (0%)
  81. Title                                    : English-SRT
  82. Language                                 : English
  83. Default                                  : Yes
  84. Forced                                   : No
  85. Text #2
  86. ID                                       : 5
  87. Format                                   : UTF-8
  88. Codec ID                                 : S_TEXT/UTF8
  89. Codec ID/Info                            : UTF-8 Plain Text
  90. Duration                                 : 2 h 10 min
  91. Bit rate                                 : 64 b/s
  92. Count of elements                        : 2182
  93. Stream size                              : 61.7 KiB (0%)
  94. Title                                    : English-SDH-SRT
  95. Language                                 : English
  96. Default                                  : No
  97. Forced                                   : No
  98. Text #3
  99. ID                                       : 6
  100. Format                                   : PGS
  101. Muxing mode                              : zlib
  102. Codec ID                                 : S_HDMV/PGS
  103. Codec ID/Info                            : Picture based subtitle format used on BDs/HD-DVDs
  104. Duration                                 : 2 h 11 min
  105. Bit rate                                 : 39.8 kb/s
  106. Count of elements                        : 4310
  107. Stream size                              : 37.4 MiB (0%)
  108. Title                                    : English-PGS
  109. Language                                 : English
  110. Default                                  : No
  111. Forced                                   : No
  112. Text #4
  113. ID                                       : 7
  114. Format                                   : PGS
  115. Muxing mode                              : zlib
  116. Codec ID                                 : S_HDMV/PGS
  117. Codec ID/Info                            : Picture based subtitle format used on BDs/HD-DVDs
  118. Duration                                 : 2 h 10 min
  119. Bit rate                                 : 28.2 kb/s
  120. Count of elements                        : 3160
  121. Stream size                              : 26.4 MiB (0%)
  122. Title                                    : Chinese-PGS
  123. Language                                 : Chinese
  124. Default                                  : No
  125. Forced                                   : No
  126. Text #5
  127. ID                                       : 8
  128. Format                                   : PGS
  129. Muxing mode                              : zlib
  130. Codec ID                                 : S_HDMV/PGS
  131. Codec ID/Info                            : Picture based subtitle format used on BDs/HD-DVDs
  132. Duration                                 : 2 h 10 min
  133. Bit rate                                 : 28.0 kb/s
  134. Count of elements                        : 3514
  135. Stream size                              : 26.2 MiB (0%)
  136. Title                                    : Chinese-PGS
  137. Language                                 : Chinese
  138. Default                                  : No
  139. Forced                                   : No
  140. Text #6
  141. ID                                       : 9
  142. Format                                   : PGS
  143. Muxing mode                              : zlib
  144. Codec ID                                 : S_HDMV/PGS
  145. Codec ID/Info                            : Picture based subtitle format used on BDs/HD-DVDs
  146. Duration                                 : 2 h 10 min
  147. Bit rate                                 : 18.2 kb/s
  148. Count of elements                        : 3502
  149. Stream size                              : 17.1 MiB (0%)
  150. Title                                    : Korean-PGS
  151. Language                                 : Korean
  152. Default                                  : No
  153. Forced                                   : No
  154. Text #7
  155. ID                                       : 10
  156. Format                                   : PGS
  157. Muxing mode                              : zlib
  158. Codec ID                                 : S_HDMV/PGS
  159. Codec ID/Info                            : Picture based subtitle format used on BDs/HD-DVDs
  160. Duration                                 : 2 h 10 min
  161. Bit rate                                 : 18.1 kb/s
  162. Count of elements                        : 3514
  163. Stream size                              : 16.9 MiB (0%)
  164. Title                                    : Arabic-PGS
  165. Language                                 : Arabic
  166. Default                                  : No
  167. Forced                                   : No
  168. Text #8
  169. ID                                       : 11
  170. Format                                   : PGS
  171. Muxing mode                              : zlib
  172. Codec ID                                 : S_HDMV/PGS
  173. Codec ID/Info                            : Picture based subtitle format used on BDs/HD-DVDs
  174. Duration                                 : 2 h 10 min
  175. Bit rate                                 : 27.8 kb/s
  176. Count of elements                        : 3518
  177. Stream size                              : 26.0 MiB (0%)
  178. Title                                    : Bulgarian-PGS
  179. Language                                 : Bulgarian
  180. Default                                  : No
  181. Forced                                   : No
  182. Text #9
  183. ID                                       : 12
  184. Format                                   : PGS
  185. Muxing mode                              : zlib
  186. Codec ID                                 : S_HDMV/PGS
  187. Codec ID/Info                            : Picture based subtitle format used on BDs/HD-DVDs
  188. Duration                                 : 2 h 10 min
  189. Bit rate                                 : 29.8 kb/s
  190. Count of elements                        : 3488
  191. Stream size                              : 27.9 MiB (0%)
  192. Title                                    : Croatian-PGS
  193. Language                                 : Croatian
  194. Default                                  : No
  195. Forced                                   : No
  196. Text #10
  197. ID                                       : 13
  198. Format                                   : PGS
  199. Muxing mode                              : zlib
  200. Codec ID                                 : S_HDMV/PGS
  201. Codec ID/Info                            : Picture based subtitle format used on BDs/HD-DVDs
  202. Duration                                 : 2 h 10 min
  203. Bit rate                                 : 29.5 kb/s
  204. Count of elements                        : 3502
  205. Stream size                              : 27.6 MiB (0%)
  206. Title                                    : Czech-PGS
  207. Language                                 : Czech
  208. Default                                  : No
  209. Forced                                   : No
  210. Text #11
  211. ID                                       : 14
  212. Format                                   : PGS
  213. Muxing mode                              : zlib
  214. Codec ID                                 : S_HDMV/PGS
  215. Codec ID/Info                            : Picture based subtitle format used on BDs/HD-DVDs
  216. Duration                                 : 2 h 10 min
  217. Bit rate                                 : 27.9 kb/s
  218. Count of elements                        : 2492
  219. Stream size                              : 26.1 MiB (0%)
  220. Title                                    : Danish-PGS
  221. Language                                 : Danish
  222. Default                                  : No
  223. Forced                                   : No
  224. Text #12
  225. ID                                       : 15
  226. Format                                   : PGS
  227. Muxing mode                              : zlib
  228. Codec ID                                 : S_HDMV/PGS
  229. Codec ID/Info                            : Picture based subtitle format used on BDs/HD-DVDs
  230. Duration                                 : 2 h 10 min
  231. Bit rate                                 : 31.7 kb/s
  232. Count of elements                        : 3498
  233. Stream size                              : 29.6 MiB (0%)
  234. Title                                    : Estonian-PGS
  235. Language                                 : Estonian
  236. Default                                  : No
  237. Forced                                   : No
  238. Text #13
  239. ID                                       : 16
  240. Format                                   : PGS
  241. Muxing mode                              : zlib
  242. Codec ID                                 : S_HDMV/PGS
  243. Codec ID/Info                            : Picture based subtitle format used on BDs/HD-DVDs
  244. Duration                                 : 2 h 10 min
  245. Bit rate                                 : 26.7 kb/s
  246. Count of elements                        : 3496
  247. Stream size                              : 25.0 MiB (0%)
  248. Title                                    : Finnish-PGS
  249. Language                                 : Finnish
  250. Default                                  : No
  251. Forced                                   : No
  252. Text #14
  253. ID                                       : 17
  254. Format                                   : PGS
  255. Muxing mode                              : zlib
  256. Codec ID                                 : S_HDMV/PGS
  257. Codec ID/Info                            : Picture based subtitle format used on BDs/HD-DVDs
  258. Duration                                 : 2 h 10 min
  259. Bit rate                                 : 24.8 kb/s
  260. Count of elements                        : 3520
  261. Stream size                              : 23.2 MiB (0%)
  262. Title                                    : Hebrew-PGS
  263. Language                                 : Hebrew
  264. Default                                  : No
  265. Forced                                   : No
  266. Text #15
  267. ID                                       : 18
  268. Format                                   : PGS
  269. Muxing mode                              : zlib
  270. Codec ID                                 : S_HDMV/PGS
  271. Codec ID/Info                            : Picture based subtitle format used on BDs/HD-DVDs
  272. Duration                                 : 2 h 10 min
  273. Bit rate                                 : 30.9 kb/s
  274. Count of elements                        : 3456
  275. Stream size                              : 28.9 MiB (0%)
  276. Title                                    : Hungarian-PGS
  277. Language                                 : Hungarian
  278. Default                                  : No
  279. Forced                                   : No
  280. Text #16
  281. ID                                       : 19
  282. Format                                   : PGS
  283. Muxing mode                              : zlib
  284. Codec ID                                 : S_HDMV/PGS
  285. Codec ID/Info                            : Picture based subtitle format used on BDs/HD-DVDs
  286. Duration                                 : 2 h 10 min
  287. Bit rate                                 : 28.7 kb/s
  288. Count of elements                        : 3500
  289. Stream size                              : 26.8 MiB (0%)
  290. Title                                    : Latvian-PGS
  291. Language                                 : Latvian
  292. Default                                  : No
  293. Forced                                   : No
  294. Text #17
  295. ID                                       : 20
  296. Format                                   : PGS
  297. Muxing mode                              : zlib
  298. Codec ID                                 : S_HDMV/PGS
  299. Codec ID/Info                            : Picture based subtitle format used on BDs/HD-DVDs
  300. Duration                                 : 2 h 10 min
  301. Bit rate                                 : 29.3 kb/s
  302. Count of elements                        : 3486
  303. Stream size                              : 27.4 MiB (0%)
  304. Title                                    : Lithuanian-PGS
  305. Language                                 : Lithuanian
  306. Default                                  : No
  307. Forced                                   : No
  308. Text #18
  309. ID                                       : 21
  310. Format                                   : PGS
  311. Muxing mode                              : zlib
  312. Codec ID                                 : S_HDMV/PGS
  313. Codec ID/Info                            : Picture based subtitle format used on BDs/HD-DVDs
  314. Duration                                 : 2 h 10 min
  315. Bit rate                                 : 28.5 kb/s
  316. Count of elements                        : 3080
  317. Stream size                              : 26.7 MiB (0%)
  318. Title                                    : Norwegian-PGS
  319. Language                                 : Norwegian
  320. Default                                  : No
  321. Forced                                   : No
  322. Text #19
  323. ID                                       : 22
  324. Format                                   : PGS
  325. Muxing mode                              : zlib
  326. Codec ID                                 : S_HDMV/PGS
  327. Codec ID/Info                            : Picture based subtitle format used on BDs/HD-DVDs
  328. Duration                                 : 2 h 10 min
  329. Bit rate                                 : 30.6 kb/s
  330. Count of elements                        : 3474
  331. Stream size                              : 28.6 MiB (0%)
  332. Title                                    : Portuguese-PGS
  333. Language                                 : Portuguese
  334. Default                                  : No
  335. Forced                                   : No
  336. Text #20
  337. ID                                       : 23
  338. Format                                   : PGS
  339. Muxing mode                              : zlib
  340. Codec ID                                 : S_HDMV/PGS
  341. Codec ID/Info                            : Picture based subtitle format used on BDs/HD-DVDs
  342. Duration                                 : 2 h 10 min
  343. Bit rate                                 : 29.0 kb/s
  344. Count of elements                        : 3282
  345. Stream size                              : 27.1 MiB (0%)
  346. Title                                    : Romanian-PGS
  347. Language                                 : Romanian
  348. Default                                  : No
  349. Forced                                   : No
  350. Text #21
  351. ID                                       : 24
  352. Format                                   : PGS
  353. Muxing mode                              : zlib
  354. Codec ID                                 : S_HDMV/PGS
  355. Codec ID/Info                            : Picture based subtitle format used on BDs/HD-DVDs
  356. Duration                                 : 2 h 10 min
  357. Bit rate                                 : 26.0 kb/s
  358. Count of elements                        : 2628
  359. Stream size                              : 24.4 MiB (0%)
  360. Title                                    : Slovenian-PGS
  361. Language                                 : Slovenian
  362. Default                                  : No
  363. Forced                                   : No
  364. Text #22
  365. ID                                       : 25
  366. Format                                   : PGS
  367. Muxing mode                              : zlib
  368. Codec ID                                 : S_HDMV/PGS
  369. Codec ID/Info                            : Picture based subtitle format used on BDs/HD-DVDs
  370. Duration                                 : 2 h 10 min
  371. Bit rate                                 : 28.4 kb/s
  372. Count of elements                        : 3486
  373. Stream size                              : 26.6 MiB (0%)
  374. Title                                    : Swedish-PGS
  375. Language                                 : Swedish
  376. Default                                  : No
  377. Forced                                   : No
  378. Text #23
  379. ID                                       : 26
  380. Format                                   : PGS
  381. Muxing mode                              : zlib
  382. Codec ID                                 : S_HDMV/PGS
  383. Codec ID/Info                            : Picture based subtitle format used on BDs/HD-DVDs
  384. Duration                                 : 2 h 10 min
  385. Bit rate                                 : 29.4 kb/s
  386. Count of elements                        : 3520
  387. Stream size                              : 27.5 MiB (0%)
  388. Title                                    : Russian-PGS
  389. Language                                 : Russian
  390. Default                                  : No
  391. Forced                                   : No
  392. Text #24
  393. ID                                       : 27
  394. Format                                   : PGS
  395. Muxing mode                              : zlib
  396. Codec ID                                 : S_HDMV/PGS
  397. Codec ID/Info                            : Picture based subtitle format used on BDs/HD-DVDs
  398. Duration                                 : 2 h 10 min
  399. Bit rate                                 : 30.3 kb/s
  400. Count of elements                        : 3520
  401. Stream size                              : 28.4 MiB (0%)
  402. Title                                    : Thai-PGS
  403. Language                                 : Thai
  404. Default                                  : No
  405. Forced                                   : No
  406. Text #25
  407. ID                                       : 28
  408. Format                                   : PGS
  409. Muxing mode                              : zlib
  410. Codec ID                                 : S_HDMV/PGS
  411. Codec ID/Info                            : Picture based subtitle format used on BDs/HD-DVDs
  412. Duration                                 : 2 h 10 min
  413. Bit rate                                 : 32.0 kb/s
  414. Count of elements                        : 3508
  415. Stream size                              : 30.0 MiB (0%)
  416. Title                                    : Turkish-PGS
  417. Language                                 : Turkish
  418. Default                                  : No
  419. Forced                                   : No
  420. Text #26
  421. ID                                       : 29
  422. Format                                   : PGS
  423. Muxing mode                              : zlib
  424. Codec ID                                 : S_HDMV/PGS
  425. Codec ID/Info                            : Picture based subtitle format used on BDs/HD-DVDs
  426. Duration                                 : 2 h 11 min
  427. Bit rate                                 : 36.0 kb/s
  428. Count of elements                        : 3898
  429. Stream size                              : 33.7 MiB (0%)
  430. Title                                    : Chinese-PGS
  431. Language                                 : Chinese
  432. Default                                  : No
  433. Forced                                   : No
  434. Text #27
  435. ID                                       : 30
  436. Format                                   : PGS
  437. Muxing mode                              : zlib
  438. Codec ID                                 : S_HDMV/PGS
  439. Codec ID/Info                            : Picture based subtitle format used on BDs/HD-DVDs
  440. Duration                                 : 2 h 8 min
  441. Bit rate                                 : 629 b/s
  442. Count of elements                        : 98
  443. Stream size                              : 591 KiB (0%)
  444. Title                                    : Telugu-PGS
  445. Language                                 : Telugu
  446. Default                                  : No
  447. Forced                                   : No
  448. Text #28
  449. ID                                       : 31
  450. Format                                   : PGS
  451. Muxing mode                              : zlib
  452. Codec ID                                 : S_HDMV/PGS
  453. Codec ID/Info                            : Picture based subtitle format used on BDs/HD-DVDs
  454. Duration                                 : 2 h 8 min
  455. Bit rate                                 : 821 b/s
  456. Count of elements                        : 96
  457. Stream size                              : 771 KiB (0%)
  458. Title                                    : Tamil-PGS
  459. Language                                 : Tamil
  460. Default                                  : No
  461. Forced                                   : No
  462. Text #29
  463. ID                                       : 32
  464. Format                                   : PGS
  465. Muxing mode                              : zlib
  466. Codec ID                                 : S_HDMV/PGS
  467. Codec ID/Info                            : Picture based subtitle format used on BDs/HD-DVDs
  468. Duration                                 : 2 h 8 min
  469. Bit rate                                 : 625 b/s
  470. Count of elements                        : 106
  471. Stream size                              : 587 KiB (0%)
  472. Title                                    : Hindi-PGS
  473. Language                                 : Hindi
  474. Default                                  : No
  475. Forced                                   : No
  476. Menu
  477. 00:00:00.000                             : en:Chapter 01
  478. 00:08:18.790                             : en:Chapter 02
  479. 00:15:11.285                             : en:Chapter 03
  480. 00:25:22.396                             : en:Chapter 04
  481. 00:31:57.624                             : en:Chapter 05
  482. 00:39:00.255                             : en:Chapter 06
  483. 00:50:07.713                             : en:Chapter 07
  484. 01:01:28.810                             : en:Chapter 08
  485. 01:08:51.502                             : en:Chapter 09
  486. 01:16:40.471                             : en:Chapter 10
  487. 01:24:29.356                             : en:Chapter 11
  488. 01:34:00.677                             : en:Chapter 12
  489. 01:43:01.175                             : en:Chapter 13
  490. 01:52:53.850                             : en:Chapter 14
  491. 02:00:44.446                             : en:Chapter 15
复制代码






                                       
                                       

                                       
                                       
                                       




回复

使用道具 举报

懒得打字嘛,点击右侧快捷回复 【右侧内容,后台自定义】
您需要登录后才可以回帖 登录 | 立即加入

本版积分规则

Archiver| |网站地图

Copyright © 2024 Comsenz Inc. Powered by 蓝光电影网

本站内容由用户自主分享和转载自互联网,转载目的在于传递更多信息,并不代表本网赞同其观点和对其真实性负责。

如有侵权、违反国家法律政策行为,请联系我们,我们会第一时间及时清除和处理!

举报反馈邮箱:4k1080.com@gmail.com

快速回复 返回顶部 返回列表