找回密码

查看: 1317|回复: 0

[喜剧] 追杀胖老爹/肉身轰炸 Fatman.2020.1080p.BluRay.x264-iFT 11.39GB

[复制链接]
蓝光币
2048
发表于 2020-12-13 20:14:54 | 显示全部楼层 |阅读模式


◎译  名 追杀胖老爹/肉身轰炸/肥佬/瘦削侠/胖子/追杀圣诞老人
◎片  名 Fatman
◎年  代 2020
◎产  地 英国,加拿大,美国
◎类  别 笑剧 / 行动 / 奇异
◎语  言 英语
◎上映日期 2020-10-08(法国收集) / 2020-10-17(Film Fest 919) / 2020-11-24(美国收集)
◎IMDb评分  5.9/10 from 8237 users
◎IMDb链接  https://www.imdb.com/title/tt10310140/
◎豆瓣评分 5.5/10 from 671 users
◎豆瓣链接 https://movie.douban.com/subject/33440169/
◎片  长 100分钟
◎导  演 艾什姆·内尔姆斯 Eshom Nelms / 伊恩·内尔姆斯 Ian Nelms
◎编  剧 艾什姆·内尔姆斯 Eshom Nelms / 伊恩·内尔姆斯 Ian Nelms
◎主  演 梅尔·吉布森 Mel Gibson
       钱斯·赫斯菲尔德 Chance Hurstfield
       沃尔顿·戈金斯 Walton Goggins
       玛丽安娜·琼-巴普蒂斯特 Marianne Jean-Baptiste
       肖恩·本森 Shaun Benson
       保利诺·努内斯 Paulino Nunes
       马克·戴 Mark Day
       黛博拉·格罗弗 Deborah Grover
       米雪儿·朗 Michelle Lang
       罗伯特·博克斯塔尔 Robert Bockstael
       迈克尔·迪克森 Michael Dickson
       米克尔·康德 Mikael Conde
       肖恩·塔克 Sean Tucker
       沙维尔·索特洛 Xavier Sotelo
       肖恩迪瓦恩 Sean Devine
       迈克尔·戴森 Michael Dyson
       迪伦·罗伯茨 Dylan Roberts
       Bill Lake
◎标  签 美国 | 笑剧 | 2020 | 行动 | 奇异 | 犯罪 | 搞笑 | 英国
◎简  介


  圣诞老人克里斯(梅尔·吉布森 饰)随着年数增加,奇迹也随着逐年下滑。为了拯救圣诞工场,并赡养他的小精灵员工,他被迫与美军合作,转行起头制造军武。不外一次失误,竟让他惹来杀身之祸?!就在圣诞节早晨,一位富豪家庭男孩(钱斯·赫斯菲尔德 饰),满心期待地翻开圣诞礼物,却发现礼物只是一块煤炭。大发雷霆的他,决议招聘职业杀手,猎杀这位让他怒喜洋洋的圣诞老人……屁孩PK圣诞老人,最初究竟谁输谁赢?
  1. Video
  2. ID                                       : 1
  3. Format                                   : AVC
  4. Format/Info                              : Advanced Video Codec
  5. Format profile                           : [email protected]
  6. Format settings                          : CABAC / 5 Ref Frames
  7. Format settings, CABAC                   : Yes
  8. Format settings, Reference frames        : 5 frames
  9. Codec ID                                 : V_MPEG4/ISO/AVC
  10. Duration                                 : 1 h 40 min
  11. Bit rate                                 : 15.1 Mb/s
  12. Width                                    : 1 920 pixels
  13. Height                                   : 800 pixels
  14. Display aspect ratio                     : 2.40:1
  15. Frame rate mode                          : Constant
  16. Frame rate                               : 23.976 (24000/1001/189150) FPS
  17. Color space                              : YUV
  18. Chroma subsampling                       : 4:2:0
  19. Bit depth                                : 8 bits
  20. Scan type                                : Progressive
  21. Bits/(Pixel*Frame)                       : 0.409
  22. Stream size                              : 10.5 GiB (93%)
  23. Writing library                          : x264 core 161 r3018+53 ~ Encoded by Mocunaman in Portugal
  24. Encoding settings                        : cabac=1 / ref=5 / deblock=1:-3:-3 / analyse=0x3:0x113 / me=umh / subme=11 / psy=1 / fade_compensate=0.00 / psy_rd=1.00:0.00 / mixed_ref=1 / me_range=32 / chroma_me=1 / trellis=2 / 8x8dct=1 / cqm=0 / deadzone=21,11 / fast_pskip=0 / chroma_qp_offset=-2 / threads=25 / lookahead_threads=4 / sliced_threads=0 / nr=0 / decimate=0 / interlaced=0 / bluray_compat=0 / constrained_intra=0 / fgo=0 / bframes=9 / b_pyramid=2 / b_adapt=2 / b_bias=0 / direct=3 / weightb=1 / open_gop=0 / weightp=2 / keyint=250 / keyint_min=23 / scenecut=40 / intra_refresh=0 / rc_lookahead=60 / rc=crf / mbtree=0 / crf=16.8000 / qcomp=0.65 / qpmin=0:0:0 / qpmax=69:69:69 / qpstep=4 / vbv_maxrate=62500 / vbv_bufsize=78125 / crf_max=0.0 / nal_hrd=none / filler=0 / ip_ratio=1.30 / pb_ratio=1.20 / aq=3:0.85 / aq-sensitivity=10.00 / aq-factor=1.00:1.00:1.00 / aq2=0 / aq3=0 / zones=0,1076,crf=15.3/1660,5246,crf=16.3/13061,15308,crf=16/17444,42928,crf=16.3/49955,52861,crf=16.5/59941,66641,crf=16.3/70501,73981,crf=16/78925,79813,crf=15.8/81541,88501,crf=16.3/92885,95440,crf=15.8/104800,107999,crf=16.3/108911,116520,crf=15.8/130681,138097,crf=16.3
  25. Language                                 : English
  26. Default                                  : Yes
  27. Forced                                   : No
  28. Color range                              : Limited
  29. Color primaries                          : BT.709
  30. Transfer characteristics                 : BT.709
  31. Matrix coefficients                      : BT.709
  32. Audio #1
  33. ID                                       : 2
  34. Format                                   : E-AC-3
  35. Format/Info                              : Enhanced AC-3
  36. Commercial name                          : Dolby Digital Plus
  37. Codec ID                                 : A_EAC3
  38. Duration                                 : 1 h 40 min
  39. Bit rate mode                            : Constant
  40. Bit rate                                 : 1 024 kb/s
  41. Channel(s)                               : 6 channels
  42. Channel layout                           : L R C LFE Ls Rs
  43. Sampling rate                            : 48.0 kHz
  44. Frame rate                               : 31.250 FPS (1536 SPF)
  45. Compression mode                         : Lossy
  46. Stream size                              : 733 MiB (6%)
  47. Title                                    : E-AC3 DD+5.1 1024kbs
  48. Language                                 : English
  49. Service kind                             : Complete Main
  50. Default                                  : Yes
  51. Forced                                   : No
  52. Audio #2
  53. ID                                       : 3
  54. Format                                   : AC-3
  55. Format/Info                              : Audio Coding 3
  56. Commercial name                          : Dolby Digital
  57. Codec ID                                 : A_AC3
  58. Duration                                 : 1 h 40 min
  59. Bit rate mode                            : Constant
  60. Bit rate                                 : 192 kb/s
  61. Channel(s)                               : 2 channels
  62. Channel layout                           : L R
  63. Sampling rate                            : 48.0 kHz
  64. Frame rate                               : 31.250 FPS (1536 SPF)
  65. Compression mode                         : Lossy
  66. Stream size                              : 137 MiB (1%)
  67. Title                                    : Commentary with co-directors/co-writers Eshom Nelms and Ian Nelms, cinematographer Johnny Derango, producer Michelle Lang and actor Mel Gibson
  68. Language                                 : English
  69. Service kind                             : Complete Main
  70. Default                                  : No
  71. Forced                                   : No
  72. Text #1
  73. ID                                       : 4
  74. Format                                   : UTF-8
  75. Codec ID                                 : S_TEXT/UTF8
  76. Codec ID/Info                            : UTF-8 Plain Text
  77. Duration                                 : 1 h 34 min
  78. Bit rate                                 : 43 b/s
  79. Count of elements                        : 1079
  80. Stream size                              : 30.3 KiB (0%)
  81. Title                                    : Full .srt
  82. Language                                 : English
  83. Default                                  : No
  84. Forced                                   : No
  85. Text #2
  86. ID                                       : 5
  87. Format                                   : UTF-8
  88. Codec ID                                 : S_TEXT/UTF8
  89. Codec ID/Info                            : UTF-8 Plain Text
  90. Duration                                 : 1 h 37 min
  91. Bit rate                                 : 44 b/s
  92. Count of elements                        : 1170
  93. Stream size                              : 31.9 KiB (0%)
  94. Title                                    : SDH .srt
  95. Language                                 : English
  96. Default                                  : No
  97. Forced                                   : No
  98. Text #3
  99. ID                                       : 6
  100. Format                                   : UTF-8
  101. Codec ID                                 : S_TEXT/UTF8
  102. Codec ID/Info                            : UTF-8 Plain Text
  103. Duration                                 : 1 h 37 min
  104. Bit rate                                 : 50 b/s
  105. Count of elements                        : 1025
  106. Stream size                              : 35.9 KiB (0%)
  107. Title                                    : Full .srt
  108. Language                                 : French
  109. Default                                  : No
  110. Forced                                   : No
  111. Text #4
  112. ID                                       : 7
  113. Format                                   : UTF-8
  114. Codec ID                                 : S_TEXT/UTF8
  115. Codec ID/Info                            : UTF-8 Plain Text
  116. Duration                                 : 1 h 39 min
  117. Bit rate                                 : 59 b/s
  118. Count of elements                        : 1336
  119. Stream size                              : 43.4 KiB (0%)
  120. Title                                    : SDH .srt
  121. Language                                 : French
  122. Default                                  : No
  123. Forced                                   : No
  124. Menu
  125. 00:00:00.000                             : en:Chapter 01
  126. 00:14:04.719                             : en:Chapter 02
  127. 00:27:23.392                             : en:Chapter 03
  128. 00:39:03.841                             : en:Chapter 04
  129. 00:51:24.707                             : en:Chapter 05
  130. 01:12:50.199                             : en:Chapter 06
  131. 01:22:26.775                             : en:Chapter 07
  132. 01:37:02.817                             : en:Chapter 08
复制代码



                                       
                                       

                                       
                                       
                                       




回复

使用道具 举报

懒得打字嘛,点击右侧快捷回复 【右侧内容,后台自定义】
您需要登录后才可以回帖 登录 | 立即加入

本版积分规则

Archiver| |网站地图

Copyright © 2024 Comsenz Inc. Powered by 蓝光电影网

本站内容由用户自主分享和转载自互联网,转载目的在于传递更多信息,并不代表本网赞同其观点和对其真实性负责。

如有侵权、违反国家法律政策行为,请联系我们,我们会第一时间及时清除和处理!

举报反馈邮箱:4k1080.com@gmail.com

快速回复 返回顶部 返回列表