找回密码

查看: 1359|回复: 0

[喜剧] 僵尸飞鲨/僵尸与飞鲨 Sky.Sharks.2020.1080p.BluRay.x264.DTS-FGT 9.31GB

[复制链接]
蓝光币
2039
发表于 2020-12-13 08:47:39 | 显示全部楼层 |阅读模式


◎译  名 僵尸飞鲨/僵尸与飞鲨/天空鲨:纳粹终极兵器(台)
◎片  名 Sky Sharks
◎年  代 2020
◎产  地 德国
◎类  别 笑剧 / 科幻 / 可骇
◎语  言 英语
◎上映日期 2017-09-01(美国)
◎IMDb评分  3.7/10 from 275 users
◎IMDb链接  https://www.imdb.com/title/tt3977848/
◎豆瓣评分 4.9/10 from 81 users
◎豆瓣链接 https://movie.douban.com/subject/26617572/
◎片  长 102分钟
◎主  演 阿曼达·比尔斯 Amanda Bearse
       托尼·托德 Tony Todd
       戴夫·谢里登 Dave Sheridan
       田川洋行 Cary-Hiroyuki Tagawa
       Diana Prince
       娜奥米·格罗斯曼 Naomi Grossman
       罗伯特·拉萨多 Robert LaSardo
       伊娃·哈伯曼 Eva Habermann
       芭芭拉·尼德尔加科娃 Barbara Nedeljakova
       拉尔·帕克·林肯 Lar Park-Lincoln
       米克·加里斯 Mick Garris
       琳恩·劳里 Lynn Lowry
       亚纱美 Asami
       努什·斯考根 Noush Skaugen
       扬·伯奇 Yan Birch
       J·拉罗斯 J. LaRose
       德特勒夫·博特 Detlef Bothe
       尼克·普林西比 Nick Principe
       麦凯拉·沙夫拉思 Michaela Schaffrath
       托马斯·莫里斯 Thomas Morris
       多米尼克·布伦特 Dominic Brunt
       尼克·康沃尔 Nick Cornwall
       拉尔夫·瑞克特 Ralf Richter
       Conny Dachs
       马迪斯·兰德维尔  Mathis Landwehr
       光武藏人 Kurando Mitsutake
       托拜西·宣克 Tobias Schenke
       Oliver Kalkofe
       克里斯·泰辛格 Chris Theisinger
       格雷戈里·保罗·史姑娘 Gregory Paul Smith
       Nina Vorbrodt
       迈克尔·博恩哈特 Michael Bornhütter
       查尔斯·雷廷豪斯 Charles Rettinghaus
       Peter Nottmeier
◎标  签 可骇 | B级 | 暴力 | 德国 | 笑剧 | 邪典 | 悬疑 | 美国
◎简  介


  在南极的冰层深处,一队地质学家发现了一个陈腐的纳粹尝试室,它仍然无缺无损,那边曾发生过黑暗尝试。为了征服天下,纳粹缔造了可以飞翔的改良鲨鱼,它们的骑手是基因突变的不死超级人类。一个名为“死肉四人”(在越南阵亡的新生的美国兵士)的弥尔顿特遣军队被召集起来,以避免天下解体
  1. Video
  2. ID                                       : 1
  3. Format                                   : AVC
  4. Format/Info                              : Advanced Video Codec
  5. Format profile                           : [email protected]
  6. Format settings                          : CABAC / 4 Ref Frames
  7. Format settings, CABAC                   : Yes
  8. Format settings, Reference frames        : 4 frames
  9. Codec ID                                 : V_MPEG4/ISO/AVC
  10. Duration                                 : 1 h 42 min
  11. Bit rate                                 : 11.5 Mb/s
  12. Width                                    : 1 920 pixels
  13. Height                                   : 804 pixels
  14. Display aspect ratio                     : 2.40:1
  15. Frame rate mode                          : Constant
  16. Frame rate                               : 24.000 FPS
  17. Color space                              : YUV
  18. Chroma subsampling                       : 4:2:0
  19. Bit depth                                : 8 bits
  20. Scan type                                : Progressive
  21. Bits/(Pixel*Frame)                       : 0.310
  22. Stream size                              : 8.23 GiB (88%)
  23. Title                                    : Sky.Sharks.2020.1080p.BluRay.x264.DTS-FGT
  24. Writing library                          : x264 core 148 r2748 97eaef2
  25. Encoding settings                        : cabac=1 / ref=4 / deblock=1:-2:-2 / analyse=0x3:0x113 / me=umh / subme=9 / psy=1 / psy_rd=1.00:0.15 / mixed_ref=1 / me_range=16 / chroma_me=1 / trellis=2 / 8x8dct=1 / cqm=0 / deadzone=21,11 / fast_pskip=1 / chroma_qp_offset=-3 / threads=72 / lookahead_threads=3 / sliced_threads=0 / nr=0 / decimate=1 / interlaced=0 / bluray_compat=0 / constrained_intra=0 / bframes=3 / b_pyramid=2 / b_adapt=1 / b_bias=0 / direct=3 / weightb=1 / open_gop=0 / weightp=2 / keyint=250 / keyint_min=25 / scenecut=40 / intra_refresh=0 / rc_lookahead=50 / rc=2pass / mbtree=1 / bitrate=11500 / ratetol=1.0 / qcomp=0.60 / qpmin=0 / qpmax=69 / qpstep=4 / cplxblur=20.0 / qblur=0.5 / vbv_maxrate=31250 / vbv_bufsize=31250 / nal_hrd=none / filler=0 / ip_ratio=1.40 / aq=1:1.00
  26. Language                                 : English
  27. Default                                  : Yes
  28. Forced                                   : No
  29. Audio
  30. ID                                       : 2
  31. Format                                   : DTS
  32. Format/Info                              : Digital Theater Systems
  33. Codec ID                                 : A_DTS
  34. Duration                                 : 1 h 42 min
  35. Bit rate mode                            : Constant
  36. Bit rate                                 : 1 509 kb/s
  37. Channel(s)                               : 6 channels
  38. Channel layout                           : C L R Ls Rs LFE
  39. Sampling rate                            : 48.0 kHz
  40. Frame rate                               : 93.750 FPS (512 SPF)
  41. Bit depth                                : 24 bits
  42. Compression mode                         : Lossy
  43. Stream size                              : 1.08 GiB (12%)
  44. Title                                    : Sky.Sharks.2020.1080p.BluRay.x264.DTS-FGT
  45. Language                                 : English
  46. Default                                  : Yes
  47. Forced                                   : No
  48. Text #1
  49. ID                                       : 3
  50. Format                                   : UTF-8
  51. Codec ID                                 : S_TEXT/UTF8
  52. Codec ID/Info                            : UTF-8 Plain Text
  53. Duration                                 : 1 h 31 min
  54. Bit rate                                 : 9 b/s
  55. Count of elements                        : 132
  56. Stream size                              : 6.23 KiB (0%)
  57. Title                                    : FORCED
  58. Language                                 : English
  59. Default                                  : Yes
  60. Forced                                   : No
  61. Text #2
  62. ID                                       : 4
  63. Format                                   : UTF-8
  64. Codec ID                                 : S_TEXT/UTF8
  65. Codec ID/Info                            : UTF-8 Plain Text
  66. Duration                                 : 1 h 40 min
  67. Bit rate                                 : 43 b/s
  68. Count of elements                        : 662
  69. Stream size                              : 31.9 KiB (0%)
  70. Language                                 : English
  71. Default                                  : No
  72. Forced                                   : No
  73. Menu
  74. 00:00:00.000                             : en:Chapter 01
  75. 00:13:17.250                             : en:Chapter 02
  76. 00:31:50.125                             : en:Chapter 03
  77. 00:50:23.750                             : en:Chapter 04
  78. 00:58:15.708                             : en:Chapter 05
  79. 01:17:08.000                             : en:Chapter 06
复制代码



                                       
                                       

                                       
                                       
                                       




回复

使用道具 举报

懒得打字嘛,点击右侧快捷回复 【右侧内容,后台自定义】
您需要登录后才可以回帖 登录 | 立即加入

本版积分规则

Archiver| |网站地图

Copyright © 2024 Comsenz Inc. Powered by 蓝光电影网

本站内容由用户自主分享和转载自互联网,转载目的在于传递更多信息,并不代表本网赞同其观点和对其真实性负责。

如有侵权、违反国家法律政策行为,请联系我们,我们会第一时间及时清除和处理!

举报反馈邮箱:4k1080.com@gmail.com

快速回复 返回顶部 返回列表