找回密码

查看: 2379|回复: 1

[剧情] 皮肤/皮囊 Skin.2018.1080p.BluRay.REMUX.AVC.DTS-HD.MA.5.1-FGT 22.24GB

[复制链接]
蓝光币
2039
发表于 2019-10-15 19:32:27 | 显示全部楼层 |阅读模式


◎译  名 皮肤 / 皮囊
◎片  名 Skin
◎年  代 2018
◎产  地 美国
◎类  别 剧情
◎语  言 英语
◎上映日期 2018-09-08(多伦多电影节) / 2019-07-26(美国)
◎IMDb评分  7.1/10 from 1329 users
◎IMDb链接  http://www.imdb.com/title/tt6043142
◎豆瓣评分 7.7/10 from 65 users
◎豆瓣链接 https://movie.douban.com/subject/27041467/
◎片  长 110分钟
◎导  演 盖·纳蒂弗 Guy Nattiv
◎编  剧 盖·纳蒂弗 Guy Nattiv
◎主  演 杰米·贝尔 Jamie Bell
      维拉·法米加 Vera Farmiga
      丹妮尔·麦克唐纳 Danielle Macdonald
      玛丽·斯图尔特·马斯特森 Mary Stuart Masterson
      麦克·柯尔特 Mike Colter
      比尔·坎普 Bill Camp
      路易莎·克劳瑟 Louisa Krause
      珍娜·莉·格林 Jenna Leigh Green
      凯莱·罗杰斯 Kylie Rogers
      罗素·普斯勒 Russell Posner
      丹尼尔·亨绍尔 Daniel Henshall
      佐伊·玛格丽特·科莱蒂 Zoe Margaret Colletti
      Rob Figueroa
      迈克尔·维拉尔 Michael Villar
      贝蒂娜·斯凯 Bettina Skye
      贾斯汀·L·威尔逊 Justin L. Wilson
      吉姆·福特 Jim Ford
      乔安娜·哈灵顿 Joanna Herrington
      Ghazi Albuliwi

◎标  签 美国 | JamieBell | 2018 | 犯罪 | 美国电影 | 剧情 | 种族 | 杰米·贝尔
◎简  介  
  杰米·贝尔将出演新片[皮肤](Skin,暂译),丹妮尔·麦克唐纳([帕蒂蛋糕$])也已加盟,导演盖·纳蒂弗([神之子])。影片改编自真人真事。布里恩·温德尔曾是黑帮构造“温兰德光头党”头子,满身刺满了纹身。2006年婚后的温德尔决议退出黑帮并停止了25次激光断根手术,去 除了面部颈部手部的纹身。
(https://movie.douban.com/subject/27624787/ 短片版)
◎获奖情况  
  第43届多伦多国际电影节(2018)
  国际影评人同盟奖 国际影评人出格奖 盖·纳蒂弗

  1. Video
  2. ID                                       : 1
  3. Format                                   : AVC
  4. Format/Info                              : Advanced Video Codec
  5. Format profile                           : [email protected]
  6. Format settings                          : CABAC / 4 Ref Frames
  7. Format settings, CABAC                   : Yes
  8. Format settings, Reference frames        : 4 frames
  9. Codec ID                                 : V_MPEG4/ISO/AVC
  10. Duration                                 : 1 h 58 min
  11. Bit rate mode                            : Variable
  12. Bit rate                                 : 25.0 Mb/s
  13. Maximum bit rate                         : 35.0 Mb/s
  14. Width                                    : 1 920 pixels
  15. Height                                   : 1 080 pixels
  16. Display aspect ratio                     : 16:9
  17. Frame rate mode                          : Constant
  18. Frame rate                               : 23.976 (24000/1001) FPS
  19. Standard                                 : NTSC
  20. Color space                              : YUV
  21. Chroma subsampling                       : 4:2:0
  22. Bit depth                                : 8 bits
  23. Scan type                                : Progressive
  24. Bits/(Pixel*Frame)                       : 0.503
  25. Stream size                              : 20.7 GiB (93%)
  26. Title                                    : Skin.2018.1080p.BluRay.REMUX.AVC.DTS-HD.MA.5.1-FGT
  27. Language                                 : English
  28. Default                                  : No
  29. Forced                                   : No
  30. Color range                              : Limited
  31. Color primaries                          : BT.709
  32. Transfer characteristics                 : BT.709
  33. Matrix coefficients                      : BT.709
  34. Audio
  35. ID                                       : 2
  36. Format                                   : DTS XLL
  37. Format/Info                              : Digital Theater Systems
  38. Commercial name                          : DTS-HD Master Audio
  39. Codec ID                                 : A_DTS
  40. Duration                                 : 1 h 58 min
  41. Bit rate mode                            : Variable
  42. Bit rate                                 : 1 891 kb/s
  43. Channel(s)                               : 6 channels
  44. Channel layout                           : C L R Ls Rs LFE
  45. Sampling rate                            : 48.0 kHz
  46. Frame rate                               : 93.750 FPS (512 SPF)
  47. Bit depth                                : 16 bits
  48. Compression mode                         : Lossless
  49. Stream size                              : 1.56 GiB (7%)
  50. Title                                    : Skin.2018.1080p.BluRay.REMUX.AVC.DTS-HD.MA.5.1-FGT
  51. Language                                 : English
  52. Default                                  : Yes
  53. Forced                                   : No
  54. Menu
  55. 00:00:00.000                             : en:Chapter 01
  56. 00:05:08.599                             : en:Chapter 02
  57. 00:12:43.137                             : en:Chapter 03
  58. 00:18:54.550                             : en:Chapter 04
  59. 00:30:26.074                             : en:Chapter 05
  60. 00:36:40.615                             : en:Chapter 06
  61. 00:46:40.506                             : en:Chapter 07
  62. 01:04:07.385                             : en:Chapter 08
  63. 01:17:10.959                             : en:Chapter 09
  64. 01:26:51.372                             : en:Chapter 10
  65. 01:36:28.866                             : en:Chapter 11
  66. 01:44:10.827                             : en:Chapter 12
复制代码






                                       
                                       

                                       
                                       
                                       




回复

使用道具 举报

蓝光币
1
发表于 2021-8-29 00:25:56 | 显示全部楼层

其实我一直觉得楼主的品味不错!呵呵!蓝光电影网太棒了!
回复

使用道具 举报

懒得打字嘛,点击右侧快捷回复 【右侧内容,后台自定义】
您需要登录后才可以回帖 登录 | 立即加入

本版积分规则

Archiver| |网站地图

Copyright © 2024 Comsenz Inc. Powered by 蓝光电影网

本站内容由用户自主分享和转载自互联网,转载目的在于传递更多信息,并不代表本网赞同其观点和对其真实性负责。

如有侵权、违反国家法律政策行为,请联系我们,我们会第一时间及时清除和处理!

举报反馈邮箱:4k1080.com@gmail.com

快速回复 返回顶部 返回列表