找回密码

查看: 1443|回复: 0

[剧情] 义胆情深 Sugar.Hill.1993.1080p.BluRay.REMUX.AVC.DTS-HD.MA.2.0-FGT 32.13GB

[复制链接]
蓝光币
2048
发表于 2019-10-15 19:28:27 | 显示全部楼层 |阅读模式


◎译  名 义胆情深
◎片  名 Sugar Hill
◎年  代 1993
◎产  地 美国
◎类  别 剧情 / 惊悚
◎语  言 英语
◎上映日期 1994-02-25
◎IMDb评分  5.9/10 from 3825 users
◎IMDb链接  https://www.imdb.com/title/tt0107079
◎豆瓣评分 0/10 from 0 users
◎豆瓣链接 https://movie.douban.com/subject/1305968/
◎片  长 123 分钟
◎导  演 里昂·艾查索 Leon Ichaso
◎编  剧 Barry Michael Cooper
◎主  演 韦斯利·斯奈普斯 Wesley Snipes
       坎蒂·亚历山大 Khandi Alexander
       德沃恩·尼克森 DeVaughn Nixon

◎标  签 犯罪 | 黑人 | 陌头 | 90s | 美国 | 种族
◎简  介  
  Hardened, uncomprimising drug dealer Roemello Skuggs decides to quit his scumbag profession so he may start a new life with his girlfriend. However, he soon learns getting out is nowhere near as easy as getting in, as everything gradually builds up to end in tragedy.
  1. Video
  2. ID                                       : 1
  3. Format                                   : AVC
  4. Format/Info                              : Advanced Video Codec
  5. Format profile                           : [email protected]
  6. Format settings                          : CABAC / 3 Ref Frames
  7. Format settings, CABAC                   : Yes
  8. Format settings, Reference frames        : 3 frames
  9. Codec ID                                 : V_MPEG4/ISO/AVC
  10. Duration                                 : 2 h 3 min
  11. Bit rate mode                            : Variable
  12. Bit rate                                 : 34.9 Mb/s
  13. Maximum bit rate                         : 38.0 Mb/s
  14. Width                                    : 1 920 pixels
  15. Height                                   : 1 080 pixels
  16. Display aspect ratio                     : 16:9
  17. Frame rate mode                          : Constant
  18. Frame rate                               : 23.976 (24000/1001) FPS
  19. Color space                              : YUV
  20. Chroma subsampling                       : 4:2:0
  21. Bit depth                                : 8 bits
  22. Scan type                                : Progressive
  23. Bits/(Pixel*Frame)                       : 0.702
  24. Stream size                              : 30.1 GiB (94%)
  25. Title                                    : Sugar.Hill.1993.1080p.BluRay.REMUX.AVC.DTS-HD.MA.2.0-FGT
  26. Language                                 : English
  27. Default                                  : No
  28. Forced                                   : No
  29. Color range                              : Limited
  30. Color primaries                          : BT.709
  31. Transfer characteristics                 : BT.709
  32. Matrix coefficients                      : BT.709
  33. Audio #1
  34. ID                                       : 2
  35. Format                                   : DTS XLL
  36. Format/Info                              : Digital Theater Systems
  37. Commercial name                          : DTS-HD Master Audio
  38. Codec ID                                 : A_DTS
  39. Duration                                 : 2 h 3 min
  40. Bit rate mode                            : Variable
  41. Bit rate                                 : 2 102 kb/s
  42. Channel(s)                               : 2 channels
  43. Channel layout                           : L R
  44. Sampling rate                            : 48.0 kHz
  45. Frame rate                               : 93.750 FPS (512 SPF)
  46. Bit depth                                : 24 bits
  47. Compression mode                         : Lossless
  48. Stream size                              : 1.81 GiB (6%)
  49. Title                                    : Sugar.Hill.1993.1080p.BluRay.REMUX.AVC.DTS-HD.MA.2.0-FGT
  50. Language                                 : English
  51. Default                                  : Yes
  52. Forced                                   : No
  53. Audio #2
  54. ID                                       : 3
  55. Format                                   : AC-3
  56. Format/Info                              : Audio Coding 3
  57. Commercial name                          : Dolby Digital
  58. Codec ID                                 : A_AC3
  59. Duration                                 : 2 h 3 min
  60. Bit rate mode                            : Constant
  61. Bit rate                                 : 224 kb/s
  62. Channel(s)                               : 2 channels
  63. Channel layout                           : L R
  64. Sampling rate                            : 48.0 kHz
  65. Frame rate                               : 31.250 FPS (1536 SPF)
  66. Bit depth                                : 16 bits
  67. Compression mode                         : Lossy
  68. Stream size                              : 198 MiB (1%)
  69. Title                                    : Sugar.Hill.1993.1080p.BluRay.REMUX.AVC.DTS-HD.MA.2.0-FGT
  70. Language                                 : English
  71. Service kind                             : Complete Main
  72. Default                                  : No
  73. Forced                                   : No
  74. Text
  75. ID                                       : 4
  76. Format                                   : PGS
  77. Muxing mode                              : zlib
  78. Codec ID                                 : S_HDMV/PGS
  79. Codec ID/Info                            : Picture based subtitle format used on BDs/HD-DVDs
  80. Duration                                 : 1 h 54 min
  81. Bit rate                                 : 30.6 kb/s
  82. Count of elements                        : 2727
  83. Stream size                              : 25.0 MiB (0%)
  84. Title                                    : English-PGS
  85. Language                                 : English
  86. Default                                  : Yes
  87. Forced                                   : No
  88. Menu
  89. 00:00:00.000                             : en:Chapter 01
  90. 00:03:19.282                             : en:Chapter 02
  91. 00:07:13.891                             : en:Chapter 03
  92. 00:15:51.659                             : en:Chapter 04
  93. 00:23:56.309                             : en:Chapter 05
  94. 00:36:48.331                             : en:Chapter 06
  95. 00:40:56.996                             : en:Chapter 07
  96. 00:51:08.065                             : en:Chapter 08
  97. 01:02:38.629                             : en:Chapter 09
  98. 01:07:55.654                             : en:Chapter 10
  99. 01:16:24.079                             : en:Chapter 11
  100. 01:29:27.904                             : en:Chapter 12
  101. 01:41:09.855                             : en:Chapter 13
  102. 01:48:50.565                             : en:Chapter 14
  103. 01:56:27.522                             : en:Chapter 15
  104. 01:58:24.138                             : en:Chapter 16
复制代码






                                       
                                       

                                       
                                       
                                       




回复

使用道具 举报

懒得打字嘛,点击右侧快捷回复 【右侧内容,后台自定义】
您需要登录后才可以回帖 登录 | 立即加入

本版积分规则

Archiver| |网站地图

Copyright © 2024 Comsenz Inc. Powered by 蓝光电影网

本站内容由用户自主分享和转载自互联网,转载目的在于传递更多信息,并不代表本网赞同其观点和对其真实性负责。

如有侵权、违反国家法律政策行为,请联系我们,我们会第一时间及时清除和处理!

举报反馈邮箱:4k1080.com@gmail.com

快速回复 返回顶部 返回列表