找回密码

查看: 928|回复: 0

[动作] 血点 Bloodsport.1988.1080p.BluRay.x264-FilmHD 6.56GB

[复制链接]
蓝光币
2048
发表于 2019-6-13 02:43:22 | 显示全部楼层 |阅读模式


◎译  名 血点
◎片  名 Bloodsport
◎年  代 1988
◎产  地 美国
◎类  别 行动 / 列传 / 活动
◎语  言 英语
◎上映日期 1988-02-26
◎IMDb评分  6.8/10 from 69477 users
◎IMDb链接  http://www.imdb.com/title/tt0092675
◎豆瓣评分 6.6/10 from 325 users
◎豆瓣链接 https://movie.douban.com/subject/1305760/
◎片  长 92 分钟
◎导  演 Newt Arnold
◎编  剧 Christopher Cosby / Mel Friedman / Sheldon Lettich
◎主  演 尚格·云顿 Jean-Claude Van Damme

◎标  签 行动 | 美国 | 尚格云顿 | 尚格·云顿 | 肉搏 | 美国电影 | 1988 | 武术
◎简  介  
  本片是按照实在事务改编而成。尚克劳范达美在本片中饰演一位功夫高手,必须在毫没法则限制的拳赛中为自己的人命罢休一搏。尚克劳范达美饰演法兰克,加入一种传自香港九龙的不法奥秘拳赛,并希望成为首位赢得该赛事的西方人。但是在赢得第一场成功后,法兰克发现自己要懊恼的事不但是要若何赢得冠军,情报局捕快要他退出角逐,一位美丽的记者想报道他的故事,更不用说他的对手想要他的小命!
1986年由尚格云稽首部挂牌主演的《血点》,这部在香港拍摄,预算只要150万美圆的低建造本钱电影,达成后还曾因整体结果欠安而被冷冻了两年之久,直到1988年尚格云顿亲身重新剪辑并哀告建造人前方能在各地电影院放映。《血点》意外地卖座奇佳,全天下的票房支出高达3万万美圆,范达美也初尝在国际影坛走红的滋味。
本片改编自白手道传奇人物Frank Dux的传奇履历。
  1. Video
  2. ID                                       : 1
  3. Format                                   : AVC
  4. Format/Info                              : Advanced Video Codec
  5. Format profile                           : [email protected]
  6. Format settings                          : CABAC / 4 Ref Frames
  7. Format settings, CABAC                   : Yes
  8. Format settings, ReFrames                : 4 frames
  9. Codec ID                                 : V_MPEG4/ISO/AVC
  10. Duration                                 : 1 h 32 min
  11. Bit rate                                 : 9 415 kb/s
  12. Width                                    : 1 920 pixels
  13. Height                                   : 1 080 pixels
  14. Display aspect ratio                     : 16:9
  15. Frame rate mode                          : Constant
  16. Frame rate                               : 23.976 (24000/1001) FPS
  17. Color space                              : YUV
  18. Chroma subsampling                       : 4:2:0
  19. Bit depth                                : 8 bits
  20. Scan type                                : Progressive
  21. Bits/(Pixel*Frame)                       : 0.189
  22. Stream size                              : 5.93 GiB (90%)
  23. Writing library                          : x264 core 104 r1713 c276662
  24. Encoding settings                        : cabac=1 / ref=4 / deblock=1:0:0 / analyse=0x3:0x133 / me=umh / subme=7 / psy=1 / psy_rd=1.00:0.00 / mixed_ref=1 / me_range=16 / chroma_me=1 / trellis=1 / 8x8dct=1 / cqm=0 / deadzone=21,11 / fast_pskip=1 / chroma_qp_offset=-2 / threads=12 / sliced_threads=0 / nr=0 / decimate=0 / interlaced=0 / constrained_intra=0 / bframes=3 / b_pyramid=2 / b_adapt=1 / b_bias=0 / direct=3 / weightb=1 / open_gop=0 / weightp=2 / keyint=240 / keyint_min=24 / scenecut=40 / intra_refresh=0 / rc_lookahead=30 / rc=2pass / mbtree=1 / bitrate=9415 / ratetol=1.0 / qcomp=0.60 / qpmin=10 / qpmax=51 / qpstep=4 / cplxblur=20.0 / qblur=0.5 / ip_ratio=1.40 / aq=1:1.00
  25. Language                                 : English
  26. Default                                  : Yes
  27. Forced                                   : No
  28. Audio
  29. ID                                       : 2
  30. Format                                   : DTS
  31. Format/Info                              : Digital Theater Systems
  32. Codec ID                                 : A_DTS
  33. Duration                                 : 1 h 32 min
  34. Bit rate mode                            : Constant
  35. Bit rate                                 : 768 kb/s
  36. Channel(s)                               : 6 channels
  37. Channel(s)_Original                      : 2 channels
  38. Channel positions                        : Front: L R
  39. Sampling rate                            : 48.0 kHz
  40. Frame rate                               : 93.750 FPS (512 SPF)
  41. Bit depth                                : 24 bits
  42. Compression mode                         : Lossy
  43. Stream size                              : 507 MiB (8%)
  44. Title                                    : English DTS 754kbps
  45. Language                                 : English
  46. Default                                  : Yes
  47. Forced                                   : No
  48. Text #1
  49. ID                                       : 3
  50. Format                                   : UTF-8
  51. Codec ID                                 : S_TEXT/UTF8
  52. Codec ID/Info                            : UTF-8 Plain Text
  53. Title                                    : English
  54. Language                                 : English
  55. Default                                  : No
  56. Forced                                   : No
  57. Text #2
  58. ID                                       : 4
  59. Format                                   : UTF-8
  60. Codec ID                                 : S_TEXT/UTF8
  61. Codec ID/Info                            : UTF-8 Plain Text
  62. Title                                    : French
  63. Language                                 : French
  64. Default                                  : No
  65. Forced                                   : No
  66. Text #3
  67. ID                                       : 5
  68. Format                                   : UTF-8
  69. Codec ID                                 : S_TEXT/UTF8
  70. Codec ID/Info                            : UTF-8 Plain Text
  71. Title                                    : Spanish
  72. Language                                 : Spanish
  73. Default                                  : No
  74. Forced                                   : No
  75. Menu
  76. 00:00:00.000                             : en:00:00:00.000
  77. 00:03:00.639                             : en:00:03:00.639
  78. 00:04:21.720                             : en:00:04:21.720
  79. 00:10:35.927                             : en:00:10:35.927
  80. 00:17:39.100                             : en:00:17:39.100
  81. 00:20:39.196                             : en:00:20:39.196
  82. 00:25:02.000                             : en:00:25:02.000
  83. 00:28:04.433                             : en:00:28:04.433
  84. 00:31:27.969                             : en:00:31:27.969
  85. 00:35:44.642                             : en:00:35:44.642
  86. 00:42:15.825                             : en:00:42:15.825
  87. 00:44:16.279                             : en:00:44:16.279
  88. 00:47:58.292                             : en:00:47:58.292
  89. 00:52:30.522                             : en:00:52:30.522
  90. 01:00:14.402                             : en:01:00:14.402
  91. 01:02:42.592                             : en:01:02:42.592
  92. 01:07:05.730                             : en:01:07:05.730
  93. 01:09:27.246                             : en:01:09:27.246
  94. 01:12:52.368                             : en:01:12:52.368
  95. 01:15:17.638                             : en:01:15:17.638
  96. 01:21:36.141                             : en:01:21:36.141
  97. 01:25:21.366                             : en:01:25:21.366
  98. 01:27:53.935                             : en:01:27:53.935
复制代码









                                       
                                       

                                       
                                       
                                       




回复

使用道具 举报

懒得打字嘛,点击右侧快捷回复 【右侧内容,后台自定义】
您需要登录后才可以回帖 登录 | 立即加入

本版积分规则

Archiver| |网站地图

Copyright © 2024 Comsenz Inc. Powered by 蓝光电影网

本站内容由用户自主分享和转载自互联网,转载目的在于传递更多信息,并不代表本网赞同其观点和对其真实性负责。

如有侵权、违反国家法律政策行为,请联系我们,我们会第一时间及时清除和处理!

举报反馈邮箱:4k1080.com@gmail.com

快速回复 返回顶部 返回列表