找回密码

查看: 4235|回复: 0

[惊悚] 至死不渝/長相屍手 Till.Death.2021.1080p.BluRay.REMUX.AVC.DTS-HD.MA.5.1-FGT 20.32GB

[复制链接]
蓝光币
2039
发表于 2021-8-11 09:59:12 | 显示全部楼层 |阅读模式


◎译  名 执迷不悟/長相屍手(港)
◎片  名 Till Death
◎年  代 2021
◎产  地 美国
◎类  别 惊悚 / 可骇
◎语  言 英语
◎上映日期 2021-07-02(美国)
◎豆瓣评分 5.7/10 from 2437 users
◎豆瓣链接 https://movie.douban.com/subject/34970326/
◎片  长 88分钟
◎导  演 S.K.戴尔 S.K. Dale
◎编  剧 杰森·卡维尔 Jason Carvey
◎主  演 梅根·福克斯 Megan Fox
       欧文·马肯 Eoin Macken
       卡兰·马尔韦 Callan Mulvey
       杰克·罗思 Jack Roth
       阿梅尔·艾米恩 Aml Ameen
◎标  签 惊悚 | 梅根·福克斯 | 美国 | 悬疑 | 2021 | 可骇 | 美国电影 | 电影
◎简  介


  A woman is left handcuffed to her dead husband as part of a sick revenge plot. Unable to unshackle, she has to survive as two killers arrive to finish her off.
  1. Video
  2. ID                                       : 1
  3. ID in the original source medium         : 4113 (0x1011)
  4. Format                                   : AVC
  5. Format/Info                              : Advanced Video Codec
  6. Format profile                           : [email protected]
  7. Format settings                          : CABAC / 4 Ref Frames
  8. Format settings, CABAC                   : Yes
  9. Format settings, Reference frames        : 4 frames
  10. Format settings, GOP                     : M=3, N=12
  11. Codec ID                                 : V_MPEG4/ISO/AVC
  12. Duration                                 : 1 h 28 min
  13. Bit rate mode                            : Variable
  14. Bit rate                                 : 27.1 Mb/s
  15. Maximum bit rate                         : 34.8 Mb/s
  16. Width                                    : 1 920 pixels
  17. Height                                   : 1 080 pixels
  18. Display aspect ratio                     : 16:9
  19. Frame rate mode                          : Constant
  20. Frame rate                               : 23.976 (24000/1001/189150) FPS
  21. Standard                                 : NTSC
  22. Color space                              : YUV
  23. Chroma subsampling                       : 4:2:0
  24. Bit depth                                : 8 bits
  25. Scan type                                : Progressive
  26. Bits/(Pixel*Frame)                       : 0.545
  27. Stream size                              : 16.8 GiB (83%)
  28. Language                                 : English
  29. Default                                  : No
  30. Forced                                   : No
  31. Color range                              : Limited
  32. Color primaries                          : BT.709
  33. Transfer characteristics                 : BT.709
  34. Matrix coefficients                      : BT.709
  35. Original source medium                   : Blu-ray
  36. Audio #1
  37. ID                                       : 2
  38. ID in the original source medium         : 4352 (0x1100)
  39. Format                                   : DTS XLL
  40. Format/Info                              : Digital Theater Systems
  41. Commercial name                          : DTS-HD Master Audio
  42. Codec ID                                 : A_DTS
  43. Duration                                 : 1 h 28 min
  44. Bit rate mode                            : Variable
  45. Bit rate                                 : 3 289 kb/s
  46. Channel(s)                               : 6 channels
  47. Channel layout                           : C L R Ls Rs LFE
  48. Sampling rate                            : 48.0 kHz
  49. Frame rate                               : 93.750 FPS (512 SPF)
  50. Bit depth                                : 24 bits
  51. Compression mode                         : Lossless
  52. Delay relative to video                  : 125 ms
  53. Stream size                              : 2.04 GiB (10%)
  54. Title                                    : DTS-HD MA 5.1
  55. Language                                 : English
  56. Default                                  : Yes
  57. Forced                                   : No
  58. Original source medium                   : Blu-ray
  59. Audio #2
  60. ID                                       : 3
  61. ID in the original source medium         : 4353 (0x1101)
  62. Format                                   : PCM
  63. Format settings                          : Little / Signed
  64. Codec ID                                 : A_PCM/INT/LIT
  65. Duration                                 : 1 h 28 min
  66. Bit rate mode                            : Constant
  67. Bit rate                                 : 2 304 kb/s
  68. Channel(s)                               : 2 channels
  69. Sampling rate                            : 48.0 kHz
  70. Frame rate                               : 30.000 FPS (1600 SPF)
  71. Bit depth                                : 24 bits
  72. Stream size                              : 1.43 GiB (7%)
  73. Title                                    : LPCM 2.0
  74. Language                                 : English
  75. Default                                  : No
  76. Forced                                   : No
  77. Original source medium                   : Blu-ray
  78. Text #1
  79. ID                                       : 4
  80. Format                                   : UTF-8
  81. Codec ID                                 : S_TEXT/UTF8
  82. Codec ID/Info                            : UTF-8 Plain Text
  83. Duration                                 : 1 h 22 min
  84. Bit rate                                 : 30 b/s
  85. Count of elements                        : 672
  86. Stream size                              : 18.3 KiB (0%)
  87. Title                                    : SRT
  88. Language                                 : English
  89. Default                                  : Yes
  90. Forced                                   : No
  91. Text #2
  92. ID                                       : 5
  93. ID in the original source medium         : 4608 (0x1200)
  94. Format                                   : PGS
  95. Muxing mode                              : zlib
  96. Codec ID                                 : S_HDMV/PGS
  97. Codec ID/Info                            : Picture based subtitle format used on BDs/HD-DVDs
  98. Duration                                 : 1 h 22 min
  99. Bit rate                                 : 43.3 kb/s
  100. Count of elements                        : 1690
  101. Stream size                              : 25.7 MiB (0%)
  102. Language                                 : English
  103. Default                                  : No
  104. Forced                                   : No
  105. Original source medium                   : Blu-ray
  106. Menu
  107. 00:00:00.000                             : Chapter 01
  108. 00:05:47.805                             : Chapter 02
  109. 00:13:53.958                             : Chapter 03
  110. 00:22:28.055                             : Chapter 04
  111. 00:29:15.336                             : Chapter 05
  112. 00:35:37.301                             : Chapter 06
  113. 00:42:12.780                             : Chapter 07
  114. 00:49:18.330                             : Chapter 08
  115. 00:56:26.591                             : Chapter 09
  116. 01:03:17.919                             : Chapter 10
  117. 01:13:15.641                             : Chapter 11
  118. 01:23:03.478                             : Chapter 12
复制代码







                                       
                                       

                                       
                                       
                                       




回复

使用道具 举报

懒得打字嘛,点击右侧快捷回复 【右侧内容,后台自定义】
您需要登录后才可以回帖 登录 | 立即加入

本版积分规则

Archiver| |网站地图

Copyright © 2024 Comsenz Inc. Powered by 蓝光电影网

本站内容由用户自主分享和转载自互联网,转载目的在于传递更多信息,并不代表本网赞同其观点和对其真实性负责。

如有侵权、违反国家法律政策行为,请联系我们,我们会第一时间及时清除和处理!

举报反馈邮箱:4k1080.com@gmail.com

快速回复 返回顶部 返回列表