找回密码

查看: 1407|回复: 0

[喜剧] 这个高中没有鬼 Make.Me.Shudder.2013.THAI.1080p.BluRay.x264.DTS-ZX 8.97GB

[复制链接]
蓝光币
2039
发表于 2020-12-9 09:17:21 | 显示全部楼层 |阅读模式


◎译  名 这个高中没有鬼/Make Me Shudder/Mo 6/5 pak ma tha phi
◎片  名 ??6/5 ?????? ?????
◎年  代 2013
◎产  地 泰国
◎类  别 笑剧 / 可骇
◎语  言 泰语
◎上映日期 2013-10-03(泰国)
◎IMDb评分  4.9/10 from 298 users
◎IMDb链接  https://www.imdb.com/title/tt3175476/
◎豆瓣评分 6.0/10 from 5059 users
◎豆瓣链接 https://movie.douban.com/subject/25798132/
◎片  长 114分钟
◎导  演 普安农  Poj Arnon
◎主  演 沪瓦隆·威伍飒 Bhuvadol Vejvongsa
       Biew Kittipat Samantrakulchai
       Kittipat Samarntragulchai
       Nick Kunatip Pinpradab
       Nick Kunatip Pinpradab
◎标  签 泰国 | 可骇 | 笑剧 | 泰国电影 | 搞笑 | 这个鬼片实在是太可笑了!! | 惊悚 | 2013
◎简  介


  泰国的都兰男人高中,就如同很多黉舍一样,有着自己言之凿凿却查无实据的怪谈传闻。这些传闻越传越烈,让人莫辩真伪。其中一个就是曾有一位门生因考试不及格跳楼自杀,继而成为逡巡校园的冤魂。轻举妄动且不敬鬼神尼克完全不相信这些蜚语,在某个夜晚,他约上尼克、詹姆士、阿标、戴克斯等七名同学夜探校园。从探险的最起头,各类阴森可骇的工作相继发生。尼克和詹姆士、阿标还以为是相互事前设想好的圈套,终极却发现跳楼的怨灵真的存在,而且这还只是当晚噩梦的起头。
  
  少年无所害怕的探险堕入紊乱,校园酿成了阴魂不散的可骇鬼屋……
  1. Video
  2. ID                                       : 1
  3. Format                                   : AVC
  4. Format/Info                              : Advanced Video Codec
  5. Format profile                           : [email protected]
  6. Format settings                          : CABAC / 4 Ref Frames
  7. Format settings, CABAC                   : Yes
  8. Format settings, Reference frames        : 4 frames
  9. Codec ID                                 : V_MPEG4/ISO/AVC
  10. Duration                                 : 1 h 44 min
  11. Bit rate                                 : 10.8 Mb/s
  12. Width                                    : 1 920 pixels
  13. Height                                   : 1 080 pixels
  14. Display aspect ratio                     : 16:9
  15. Frame rate mode                          : Constant
  16. Frame rate                               : 23.976 (24000/1001/189150) FPS
  17. Color space                              : YUV
  18. Chroma subsampling                       : 4:2:0
  19. Bit depth                                : 8 bits
  20. Scan type                                : Progressive
  21. Bits/(Pixel*Frame)                       : 0.218
  22. Stream size                              : 7.69 GiB (86%)
  23. Writing library                          : x264 core 146 r2538 121396c
  24. Encoding settings                        : cabac=1 / ref=4 / deblock=1:-3:-3 / analyse=0x3:0x133 / me=umh / subme=11 / psy=1 / psy_rd=1.00:0.00 / mixed_ref=1 / me_range=48 / chroma_me=1 / trellis=2 / 8x8dct=1 / cqm=0 / deadzone=21,11 / fast_pskip=0 / chroma_qp_offset=-2 / threads=12 / lookahead_threads=2 / sliced_threads=0 / nr=0 / decimate=1 / interlaced=0 / bluray_compat=0 / constrained_intra=0 / bframes=8 / b_pyramid=2 / b_adapt=2 / b_bias=0 / direct=1 / weightb=1 / open_gop=0 / weightp=2 / keyint=240 / keyint_min=22 / scenecut=40 / intra_refresh=0 / rc_lookahead=60 / rc=2pass / mbtree=1 / bitrate=10826 / ratetol=1.0 / qcomp=0.60 / qpmin=0 / qpmax=69 / qpstep=4 / cplxblur=20.0 / qblur=0.5 / vbv_maxrate=50000 / vbv_bufsize=50000 / nal_hrd=none / filler=0 / ip_ratio=1.40 / aq=1:1.00
  25. Language                                 : Thai
  26. Default                                  : Yes
  27. Forced                                   : No
  28. Audio
  29. ID                                       : 2
  30. Format                                   : DTS
  31. Format/Info                              : Digital Theater Systems
  32. Codec ID                                 : A_DTS
  33. Duration                                 : 1 h 44 min
  34. Bit rate mode                            : Constant
  35. Bit rate                                 : 1 509 kb/s
  36. Channel(s)                               : 6 channels
  37. Channel layout                           : C L R Ls Rs LFE
  38. Sampling rate                            : 48.0 kHz
  39. Frame rate                               : 93.750 FPS (512 SPF)
  40. Bit depth                                : 24 bits
  41. Compression mode                         : Lossy
  42. Stream size                              : 1.10 GiB (12%)
  43. Language                                 : Thai
  44. Default                                  : Yes
  45. Forced                                   : No
  46. Text
  47. ID                                       : 3
  48. Format                                   : UTF-8
  49. Codec ID                                 : S_TEXT/UTF8
  50. Codec ID/Info                            : UTF-8 Plain Text
  51. Language                                 : English
  52. Default                                  : Yes
  53. Forced                                   : No
  54. Menu
  55. 00:00:00.000                             : en:Chapter 01
  56. 00:08:45.483                             : en:Chapter 02
  57. 00:11:58.342                             : en:Chapter 03
  58. 00:13:45.783                             : en:Chapter 04
  59. 00:18:30.067                             : en:Chapter 05
  60. 00:21:20.904                             : en:Chapter 06
  61. 00:27:36.655                             : en:Chapter 07
  62. 00:32:15.934                             : en:Chapter 08
  63. 00:42:39.557                             : en:Chapter 09
  64. 00:51:28.085                             : en:Chapter 10
  65. 00:56:26.216                             : en:Chapter 11
  66. 01:12:28.344                             : en:Chapter 12
  67. 01:20:48.468                             : en:Chapter 13
  68. 01:27:42.674                             : en:Chapter 14
  69. 01:36:29.784                             : en:Chapter 15
  70. 01:41:47.392                             : en:Chapter 16
复制代码



                                       
                                       

                                       
                                       
                                       




回复

使用道具 举报

懒得打字嘛,点击右侧快捷回复 【右侧内容,后台自定义】
您需要登录后才可以回帖 登录 | 立即加入

本版积分规则

Archiver| |网站地图

Copyright © 2024 Comsenz Inc. Powered by 蓝光电影网

本站内容由用户自主分享和转载自互联网,转载目的在于传递更多信息,并不代表本网赞同其观点和对其真实性负责。

如有侵权、违反国家法律政策行为,请联系我们,我们会第一时间及时清除和处理!

举报反馈邮箱:4k1080.com@gmail.com

快速回复 返回顶部 返回列表