找回密码

查看: 681|回复: 0

[其他] 月球漫步/外星战将 Moonwalker.1988.1080p.BluRay.x264.DTS-FGT 9.50GB

[复制链接]
蓝光币
2039
发表于 2020-9-13 23:15:05 | 显示全部楼层 |阅读模式


◎译  名 月球安步/外星战将/太空城
◎片  名 Moonwalker
◎年  代 1988
◎产  地 美国
◎类  别 音乐 / 奇异
◎语  言 英语
◎上映日期 1988-12-16(美国)
◎IMDb评分  6.1/10 from 15649 users
◎IMDb链接  https://www.imdb.com/title/tt0095655/
◎豆瓣评分 8.8/10 from 5397 users
◎豆瓣链接 https://movie.douban.com/subject/1297503/
◎片  长 93 分钟
◎导  演 Colin Chilvers / Jim Blashfield / Jerry Kramer / Jerry Kramer
◎编  剧 戴维·纽曼 David Newman / 迈克尔·杰克逊 Michael Jackson / 大卫·纽曼 David Newman
◎主  演 迈克尔·杰克逊 Michael Jackson
       乔·佩西 Joe Pesci
       肖恩·列侬 Sean Lennon
       布兰登·昆恩·亚当斯 Brandon Quintin Adams
       Hakeem Abdul-Samad
       Garland Spencer
       妮基·考克斯 Nikki Cox
       Joseph Shabalala
       弗兰克·迪莱奥 Frank DiLeo
       莱赫·瓦文萨 Lech Walesa
       Khiry Abdul-Samad
       米克·贾格尔 Mick Jagger
       迈克尔·博维尔 Michael Bower
       D.J. Dellos
       Jermaine Jackson II
       狄恩·巴斯科 Dion Basco
       Cory Tyler
       保罗·雷宾斯 Paul Reubens
       斯科特·L·特雷格尔 Scott L. Treger
       Jennifer Batten
       Angella Kaye
       毛丽莎·谭查罗恩 Maurissa Tancharoen
       Smith Wordes
       丹特·巴斯克 Dante Basco
       Tajh Abdul-Samad
◎标  签 MichaelJackson | 美国 | 音乐 | 歌舞 | 科幻 | 月球安步 | MJ | 1988
◎简  介


  迈克尔·杰克逊自资拍摄电影'Moonwalker'(外星战将),可是并没有获得预期的佳评。在这部电影中,迈克尔·杰克逊将自己塑形成一个漫画配角般,一身短小的西装,一顶压得很低的号衣帽,片中表演了惊人的顷斜45度的舞蹈。这些都成为了迈克尔·杰克逊小我神话中不成替换的标志。此片全场劲歌热舞,使人热血沸腾! 洛杉矶市长Tom Bradley公布11月为'Michael Jackson Month'(麦可杰克森月)。
  
  杰克逊推出了自己创作故事剧本,自己投资拍摄的音乐电影《Moonwalker》。在这部电影中,杰克逊仿佛将自己塑造为一个如漫画名角迪克。崔西般的传奇人物。一身短小的西装,一顶压的很低的礼帽,袖子上扎着一个袖标,一切这些都成为了杰克逊小我神话中不成替换的标志性标记。值得一提的是,正是在这部电影中,杰克逊表示出了对于儿童的独有的偏心。就像昔时曾红遍中国街头巷尾的游戏厅中阿谁按照《Moonwalker》改编而成的游戏里反应的那样,杰克逊不但要拯救天下,杰克逊更重要的是拯救儿童。也正是从这张专辑起头,杰克逊和他的唱片公司一路走上了一条造神的不归之路.
  1. Video
  2. ID                                       : 1
  3. Format                                   : AVC
  4. Format/Info                              : Advanced Video Codec
  5. Format profile                           : [email protected]
  6. Format settings                          : CABAC / 4 Ref Frames
  7. Format settings, CABAC                   : Yes
  8. Format settings, Reference frames        : 4 frames
  9. Codec ID                                 : V_MPEG4/ISO/AVC
  10. Duration                                 : 1 h 32 min
  11. Bit rate                                 : 13.1 Mb/s
  12. Width                                    : 1 920 pixels
  13. Height                                   : 1 080 pixels
  14. Display aspect ratio                     : 16:9
  15. Frame rate mode                          : Constant
  16. Frame rate                               : 23.976 FPS
  17. Color space                              : YUV
  18. Chroma subsampling                       : 4:2:0
  19. Bit depth                                : 8 bits
  20. Scan type                                : Progressive
  21. Bits/(Pixel*Frame)                       : 0.264
  22. Stream size                              : 8.33 GiB (88%)
  23. Writing library                          : x264 core 88 r1471 1144615
  24. Encoding settings                        : cabac=1 / ref=4 / deblock=1:-3:-3 / analyse=0x3:0x113 / me=umh / subme=9 / psy=1 / psy_rd=1.05:0.10 / mixed_ref=1 / me_range=32 / chroma_me=1 / trellis=2 / 8x8dct=1 / cqm=2 / deadzone=21,11 / fast_pskip=0 / chroma_qp_offset=-2 / threads=12 / sliced_threads=0 / nr=0 / decimate=1 / mbaff=0 / constrained_intra=0 / bframes=3 / b_pyramid=2 / b_adapt=2 / b_bias=0 / direct=3 / wpredb=1 / wpredp=2 / keyint=250 / keyint_min=25 / scenecut=40 / intra_refresh=0 / rc_lookahead=60 / rc=2pass / mbtree=1 / bitrate=13139 / ratetol=2.0 / qcomp=0.70 / qpmin=10 / qpmax=51 / qpstep=4 / cplxblur=20.0 / qblur=0.5 / vbv_maxrate=50000 / vbv_bufsize=50000 / ip_ratio=1.40 / aq=1:1.00
  25. Language                                 : English
  26. Default                                  : No
  27. Forced                                   : No

  28. Audio
  29. ID                                       : 2
  30. Format                                   : DTS
  31. Format/Info                              : Digital Theater Systems
  32. Codec ID                                 : A_DTS
  33. Duration                                 : 1 h 32 min
  34. Bit rate mode                            : Constant
  35. Bit rate                                 : 1 509 kb/s
  36. Channel(s)                               : 6 channels
  37. Channel layout                           : C L R Ls Rs LFE
  38. Sampling rate                            : 48.0 kHz
  39. Frame rate                               : 93.750 FPS (512 SPF)
  40. Bit depth                                : 24 bits
  41. Compression mode                         : Lossy
  42. Stream size                              : 1 002 MiB (10%)
  43. Language                                 : English
  44. Default                                  : Yes
  45. Forced                                   : No
复制代码








                                       
                                       

                                       
                                       
                                       




回复

使用道具 举报

懒得打字嘛,点击右侧快捷回复 【右侧内容,后台自定义】
您需要登录后才可以回帖 登录 | 立即加入

本版积分规则

Archiver| |网站地图

Copyright © 2024 Comsenz Inc. Powered by 蓝光电影网

本站内容由用户自主分享和转载自互联网,转载目的在于传递更多信息,并不代表本网赞同其观点和对其真实性负责。

如有侵权、违反国家法律政策行为,请联系我们,我们会第一时间及时清除和处理!

举报反馈邮箱:4k1080.com@gmail.com

快速回复 返回顶部 返回列表