找回密码

查看: 1157|回复: 0

[动作] 不速之客 The.Guest.2014.LIMITED.1080p.BluRay.x264-GECKOS 7.65GB

[复制链接]
蓝光币
2039
发表于 2019-6-12 12:36:16 | 显示全部楼层 |阅读模式


◎译  名 不速之客
◎片  名 The Guest
◎年  代 2014
◎产  地 美国
◎类  别 行动 / 悬疑 / 惊悚
◎语  言 英语
◎上映日期 2014-09-17(美国)
◎IMDb评分  6.7/10 from 82095 users
◎IMDb链接  http://www.imdb.com/title/tt2980592
◎豆瓣评分 6.3/10 from 8491 users
◎豆瓣链接 https://movie.douban.com/subject/25721544/
◎片  长 99分钟
◎导  演 亚当·温加德 Adam Wingard
◎编  剧 西蒙·巴雷特 Simon Barrett
◎主  演 丹·史蒂文斯 Dan Stevens
      Maika Monroe
      布雷丹·梅耶尔 Brendan Meyer
      谢拉·柯雷 Sheila Kelley
      勒兰德·奥瑟 Leland Orser
      兰斯·莱迪克 Lance Reddick
      Tabatha Shaun
      蔡斯·威廉逊 Chase Williamson
      乔·大卫·摩尔  Joel David Moore
      Stephen Brown
      Brenden Wedner
      Alex Knight
      伊桑·恩布里 Ethan Embry
      Nancy Jeris
      马修·佩奇 Matthew Page

◎标  签 美国 | 惊悚 | 犯罪 | 行动 | 悬疑 | DanStevens | 2014 | 丹·史蒂文斯
◎简  介  
  一位退役归来的兵士与刚在疆场上痛失宗子的一家人结为朋友,相通的履历让他们的豪情维系日益增强,兵士成为了这家人的高朋。但是这家人很快发现,兵士的实在身份并不像他所说的那样……via.张咏轩
◎获奖情况  
  第30届美国自力精神奖(2015)
  最好剪辑(提名) 亚当·温加德

  1. Video
  2. ID                                       : 1
  3. Format                                   : AVC
  4. Format/Info                              : Advanced Video Codec
  5. Format profile                           : [email protected]
  6. Format settings, CABAC                   : Yes
  7. Format settings, ReFrames                : 5 frames
  8. Codec ID                                 : V_MPEG4/ISO/AVC
  9. Duration                                 : 1 h 40 min
  10. Bit rate                                 : 9 395 kb/s
  11. Width                                    : 1 920 pixels
  12. Height                                   : 800 pixels
  13. Display aspect ratio                     : 2.40:1
  14. Frame rate mode                          : Constant
  15. Frame rate                               : 23.976 FPS
  16. Color space                              : YUV
  17. Chroma subsampling                       : 4:2:0
  18. Bit depth                                : 8 bits
  19. Scan type                                : Progressive
  20. Bits/(Pixel*Frame)                       : 0.255
  21. Stream size                              : 6.44 GiB (84%)
  22. Writing library                          : x264 core 142 r2479 dd79a61
  23. Encoding settings                        : cabac=1 / ref=5 / deblock=1:0:0 / analyse=0x3:0x133 / me=umh / subme=7 / psy=1 / psy_rd=1.00:0.00 / mixed_ref=1 / me_range=16 / chroma_me=1 / trellis=1 / 8x8dct=1 / cqm=0 / deadzone=21,11 / fast_pskip=0 / chroma_qp_offset=-2 / threads=18 / lookahead_threads=3 / sliced_threads=0 / nr=0 / decimate=1 / interlaced=0 / bluray_compat=0 / constrained_intra=0 / bframes=3 / b_pyramid=2 / b_adapt=1 / b_bias=0 / direct=1 / weightb=1 / open_gop=0 / weightp=2 / keyint=250 / keyint_min=23 / scenecut=40 / intra_refresh=0 / rc_lookahead=40 / rc=2pass / mbtree=1 / bitrate=9395 / ratetol=1.0 / qcomp=0.60 / qpmin=0 / qpmax=69 / qpstep=4 / cplxblur=20.0 / qblur=0.5 / ip_ratio=1.40 / aq=1:1.00
  24. Language                                 : English
  25. Default                                  : Yes
  26. Forced                                   : No
  27. Audio
  28. ID                                       : 2
  29. Format                                   : DTS
  30. Format/Info                              : Digital Theater Systems
  31. Mode                                     : 16
  32. Format settings, Endianness              : Big
  33. Codec ID                                 : A_DTS
  34. Duration                                 : 1 h 40 min
  35. Bit rate mode                            : Constant
  36. Bit rate                                 : 1 509 kb/s
  37. Channel(s)                               : 6 channels
  38. Channel positions                        : Front: L C R, Side: L R, LFE
  39. Sampling rate                            : 48.0 kHz
  40. Frame rate                               : 93.750 FPS (512 spf)
  41. Bit depth                                : 24 bits
  42. Compression mode                         : Lossy
  43. Stream size                              : 1.06 GiB (14%)
  44. Language                                 : English
  45. Default                                  : Yes
  46. Forced                                   : No
  47. Menu
  48. 00:00:00.000                             : en:00:00:00.000
  49. 00:05:38.129                             : en:00:05:38.129
  50. 00:09:36.159                             : en:00:09:36.159
  51. 00:15:39.772                             : en:00:15:39.772
  52. 00:20:37.653                             : en:00:20:37.653
  53. 00:26:07.357                             : en:00:26:07.357
  54. 00:31:22.422                             : en:00:31:22.422
  55. 00:36:32.941                             : en:00:36:32.941
  56. 00:40:39.479                             : en:00:40:39.479
  57. 00:46:43.259                             : en:00:46:43.259
  58. 00:49:52.531                             : en:00:49:52.531
  59. 00:55:04.218                             : en:00:55:04.218
  60. 01:00:38.927                             : en:01:00:38.927
  61. 01:04:13.349                             : en:01:04:13.349
  62. 01:09:22.742                             : en:01:09:22.742
  63. 01:15:38.409                             : en:01:15:38.409
  64. 01:20:08.053                             : en:01:20:08.053
  65. 01:25:00.679                             : en:01:25:00.679
  66. 01:30:15.201                             : en:01:30:15.201
  67. 01:35:42.904                             : en:01:35:42.904
复制代码









                                       
                                       

                                       
                                       
                                       




回复

使用道具 举报

懒得打字嘛,点击右侧快捷回复 【右侧内容,后台自定义】
您需要登录后才可以回帖 登录 | 立即加入

本版积分规则

Archiver| |网站地图

Copyright © 2024 Comsenz Inc. Powered by 蓝光电影网

本站内容由用户自主分享和转载自互联网,转载目的在于传递更多信息,并不代表本网赞同其观点和对其真实性负责。

如有侵权、违反国家法律政策行为,请联系我们,我们会第一时间及时清除和处理!

举报反馈邮箱:4k1080.com@gmail.com

快速回复 返回顶部 返回列表