找回密码

查看: 2495|回复: 0

[惊悚] 亲属关系 Kindred.2020.1080p.BluRay.REMUX.AVC.DTS-HD.MA.5.1-FGT 27.50GB

[复制链接]
蓝光币
2039
发表于 2021-6-12 19:12:14 | 显示全部楼层 |阅读模式


◎译  名 支属关系/Corvidae/鸦科
◎片  名 Kindred
◎年  代 2020
◎产  地 英国
◎类  别 惊悚
◎语  言 英语
◎上映日期 2020-11-06(美国)
◎豆瓣评分 /10 from 0 users
◎豆瓣链接 https://movie.douban.com/subject/30456563/
◎主  演 费奥纳·肖 Fiona Shaw
       爱德华·霍尔克罗夫特 Edward Holcroft
       杰克·劳登 Jack Lowden
       克洛伊·皮里 Chloe Pirrie
       安东·莱瑟 Anton Lesser
       卡伦·索尼娅·塞沃尔 Kiran Sonia Sawar
       塔马拉·劳伦斯 Tamara Lawrance
◎标  签 惊悚 | 英国 | 2020 | 杰克·劳登 | 可骇 | 英国电影 | 菲奥娜·肖 | 2020s
◎简  介


  故事报告男友意外归天,精神懦弱的女友怀着孕来到了男友的家庭中,男友的家人对她的每个行为都不时关注。由于精神幻觉的困扰,她对男友家人的意图发生了思疑。
◎获奖情况
  第23届英国自力电影奖 ?(2020)
  最好女配角(提名) 费奥纳·肖
  1. Video
  2. ID                                       : 1
  3. ID in the original source medium         : 4113 (0x1011)
  4. Format                                   : AVC
  5. Format/Info                              : Advanced Video Codec
  6. Format profile                           : [email protected]
  7. Format settings                          : CABAC / 4 Ref Frames
  8. Format settings, CABAC                   : Yes
  9. Format settings, Reference frames        : 4 frames
  10. Codec ID                                 : V_MPEG4/ISO/AVC
  11. Duration                                 : 1 h 40 min
  12. Bit rate mode                            : Constant
  13. Bit rate                                 : 31.8 Mb/s
  14. Nominal bit rate                         : 34.0 Mb/s
  15. Width                                    : 1 920 pixels
  16. Height                                   : 1 080 pixels
  17. Display aspect ratio                     : 16:9
  18. Frame rate mode                          : Constant
  19. Frame rate                               : 23.976 (24000/1001/189150) FPS
  20. Color space                              : YUV
  21. Chroma subsampling                       : 4:2:0
  22. Bit depth                                : 8 bits
  23. Scan type                                : Progressive
  24. Bits/(Pixel*Frame)                       : 0.639
  25. Stream size                              : 22.4 GiB (81%)
  26. Language                                 : English
  27. Default                                  : No
  28. Forced                                   : No
  29. Original source medium                   : Blu-ray
  30. Audio #1
  31. ID                                       : 2
  32. ID in the original source medium         : 4352 (0x1100)
  33. Format                                   : DTS XLL
  34. Format/Info                              : Digital Theater Systems
  35. Commercial name                          : DTS-HD Master Audio
  36. Codec ID                                 : A_DTS
  37. Duration                                 : 1 h 40 min
  38. Bit rate mode                            : Variable
  39. Bit rate                                 : 2 460 kb/s
  40. Channel(s)                               : 6 channels
  41. Channel layout                           : C L R Ls Rs LFE
  42. Sampling rate                            : 48.0 kHz
  43. Frame rate                               : 93.750 FPS (512 SPF)
  44. Bit depth                                : 24 bits
  45. Compression mode                         : Lossless
  46. Stream size                              : 1.73 GiB (6%)
  47. Title                                    : DTS-HD MA 5.1
  48. Language                                 : English
  49. Default                                  : Yes
  50. Forced                                   : No
  51. Original source medium                   : Blu-ray
  52. Audio #2
  53. ID                                       : 3
  54. ID in the original source medium         : 4353 (0x1101)
  55. Format                                   : DTS XLL
  56. Format/Info                              : Digital Theater Systems
  57. Commercial name                          : DTS-HD Master Audio
  58. Codec ID                                 : A_DTS
  59. Duration                                 : 1 h 40 min
  60. Bit rate mode                            : Variable
  61. Bit rate                                 : 1 590 kb/s
  62. Channel(s)                               : 2 channels
  63. Channel layout                           : L R
  64. Sampling rate                            : 48.0 kHz
  65. Frame rate                               : 93.750 FPS (512 SPF)
  66. Bit depth                                : 24 bits
  67. Compression mode                         : Lossless
  68. Stream size                              : 1.12 GiB (4%)
  69. Title                                    : DTS-HD MA 2.0
  70. Language                                 : English
  71. Default                                  : No
  72. Forced                                   : No
  73. Original source medium                   : Blu-ray
  74. Audio #3
  75. ID                                       : 4
  76. ID in the original source medium         : 4354 (0x1102)
  77. Format                                   : DTS XLL
  78. Format/Info                              : Digital Theater Systems
  79. Commercial name                          : DTS-HD Master Audio
  80. Codec ID                                 : A_DTS
  81. Duration                                 : 1 h 40 min
  82. Bit rate mode                            : Variable
  83. Bit rate                                 : 1 592 kb/s
  84. Channel(s)                               : 2 channels
  85. Channel layout                           : L R
  86. Sampling rate                            : 48.0 kHz
  87. Frame rate                               : 93.750 FPS (512 SPF)
  88. Bit depth                                : 24 bits
  89. Compression mode                         : Lossless
  90. Stream size                              : 1.12 GiB (4%)
  91. Title                                    : DTS-HD MA 2.0
  92. Language                                 : English
  93. Default                                  : No
  94. Forced                                   : No
  95. Original source medium                   : Blu-ray
  96. Audio #4
  97. ID                                       : 5
  98. ID in the original source medium         : 4355 (0x1103)
  99. Format                                   : DTS XLL
  100. Format/Info                              : Digital Theater Systems
  101. Commercial name                          : DTS-HD Master Audio
  102. Codec ID                                 : A_DTS
  103. Duration                                 : 1 h 40 min
  104. Bit rate mode                            : Variable
  105. Bit rate                                 : 1 619 kb/s
  106. Channel(s)                               : 2 channels
  107. Channel layout                           : L R
  108. Sampling rate                            : 48.0 kHz
  109. Frame rate                               : 93.750 FPS (512 SPF)
  110. Bit depth                                : 24 bits
  111. Compression mode                         : Lossless
  112. Stream size                              : 1.14 GiB (4%)
  113. Title                                    : DTS-HD MA 2.0
  114. Language                                 : English
  115. Default                                  : No
  116. Forced                                   : No
  117. Original source medium                   : Blu-ray
  118. Text #1
  119. ID                                       : 6
  120. Format                                   : UTF-8
  121. Codec ID                                 : S_TEXT/UTF8
  122. Codec ID/Info                            : UTF-8 Plain Text
  123. Duration                                 : 1 h 34 min
  124. Bit rate                                 : 45 b/s
  125. Count of elements                        : 1284
  126. Stream size                              : 31.7 KiB (0%)
  127. Title                                    : SRT
  128. Language                                 : English
  129. Default                                  : Yes
  130. Forced                                   : No
  131. Text #2
  132. ID                                       : 7
  133. ID in the original source medium         : 4608 (0x1200)
  134. Format                                   : PGS
  135. Muxing mode                              : zlib
  136. Codec ID                                 : S_HDMV/PGS
  137. Codec ID/Info                            : Picture based subtitle format used on BDs/HD-DVDs
  138. Duration                                 : 1 h 38 min
  139. Bit rate                                 : 27.9 kb/s
  140. Count of elements                        : 1996
  141. Stream size                              : 19.7 MiB (0%)
  142. Language                                 : English
  143. Default                                  : No
  144. Forced                                   : No
  145. Original source medium                   : Blu-ray
  146. Text #3
  147. ID                                       : 8
  148. ID in the original source medium         : 4609 (0x1201)
  149. Format                                   : PGS
  150. Muxing mode                              : zlib
  151. Codec ID                                 : S_HDMV/PGS
  152. Codec ID/Info                            : Picture based subtitle format used on BDs/HD-DVDs
  153. Duration                                 : 1 h 35 min
  154. Bit rate                                 : 26.6 kb/s
  155. Count of elements                        : 1844
  156. Stream size                              : 18.2 MiB (0%)
  157. Language                                 : Spanish
  158. Default                                  : No
  159. Forced                                   : No
  160. Original source medium                   : Blu-ray
  161. Menu
  162. 00:00:00.000                             : Chapter 01
  163. 00:08:07.236                             : Chapter 02
  164. 00:17:14.450                             : Chapter 03
  165. 00:23:48.218                             : Chapter 04
  166. 00:31:17.292                             : Chapter 05
  167. 00:39:46.050                             : Chapter 06
  168. 00:49:56.326                             : Chapter 07
  169. 00:57:05.463                             : Chapter 08
  170. 01:06:10.967                             : Chapter 09
  171. 01:12:21.086                             : Chapter 10
  172. 01:22:54.094                             : Chapter 11
  173. 01:29:45.129                             : Chapter 12
复制代码







                                       
                                       

                                       
                                       
                                       




回复

使用道具 举报

懒得打字嘛,点击右侧快捷回复 【右侧内容,后台自定义】
您需要登录后才可以回帖 登录 | 立即加入

本版积分规则

Archiver| |网站地图

Copyright © 2024 Comsenz Inc. Powered by 蓝光电影网

本站内容由用户自主分享和转载自互联网,转载目的在于传递更多信息,并不代表本网赞同其观点和对其真实性负责。

如有侵权、违反国家法律政策行为,请联系我们,我们会第一时间及时清除和处理!

举报反馈邮箱:4k1080.com@gmail.com

快速回复 返回顶部 返回列表