找回密码

查看: 2228|回复: 0

[惊悚] 骨肉/恶魔之子 Son.2021.1080p.BluRay.REMUX.AVC.DTS-HD.MA.5.1-FGT 14.96GB

[复制链接]
蓝光币
2039
发表于 2021-5-21 17:57:54 | 显示全部楼层 |阅读模式


◎译  名 骨血/恶魔之子/爱子
◎片  名 Son
◎年  代 2021
◎产  地 爱尔兰
◎类  别 惊悚 / 可骇
◎语  言 英语
◎上映日期 2021-02-26(加拿大)
◎豆瓣评分 5.4/10 from 263 users
◎豆瓣链接 https://movie.douban.com/subject/30301194/
◎片  长 98分钟
◎导  演 伊万·卡瓦纳 Ivan Kavanagh
◎编  剧 伊万·卡瓦纳 Ivan Kavanagh
◎主  演 埃米尔·赫斯基 Emile Hirsch
       安迪·马蒂切克 Andi Matichak
       卢克·大卫·布鲁姆 Luke David Blumm
       罗科·西斯托 Rocco Sisto
       瓦妮塔·沃姆斯利 Wanetah Walmsley
       克兰斯顿·约翰逊 Cranston Johnson
       艾琳·布拉德利·丹格 Erin Bradley Dangar
       Blaine Maye
       亚当·亨斯利 Adam Henslee
◎标  签 可骇 | 惊悚 | 爱尔兰 | 邪教 | 2021 | 电影 | 美国电影 | 爱尔兰电影
◎简  介


  安迪·马蒂切克([月光光心慌慌])、埃米尔·赫斯基([荒原保存])将主演可骇片[儿子](Son,暂译),伊万·卡瓦纳([永生之地])自编自导。影片报告一位母亲在她儿时曾逃走邪教构造。而她成为母亲以后,邪教构造的成员让她的孩子传染上了一种可怕的疾病,这类疾病的治愈方式比她设想中的更可怕。该片将于2020年1月在美国开拍。
  1. Video
  2. ID                                       : 1
  3. ID in the original source medium         : 4113 (0x1011)
  4. Format                                   : AVC
  5. Format/Info                              : Advanced Video Codec
  6. Format profile                           : [email protected]
  7. Format settings                          : CABAC / 4 Ref Frames
  8. Format settings, CABAC                   : Yes
  9. Format settings, Reference frames        : 4 frames
  10. Codec ID                                 : V_MPEG4/ISO/AVC
  11. Duration                                 : 1 h 38 min
  12. Bit rate mode                            : Variable
  13. Bit rate                                 : 20.0 Mb/s
  14. Maximum bit rate                         : 35.0 Mb/s
  15. Width                                    : 1 920 pixels
  16. Height                                   : 1 080 pixels
  17. Display aspect ratio                     : 16:9
  18. Frame rate mode                          : Constant
  19. Frame rate                               : 23.976 (24000/1001/189150) FPS
  20. Standard                                 : NTSC
  21. Color space                              : YUV
  22. Chroma subsampling                       : 4:2:0
  23. Bit depth                                : 8 bits
  24. Scan type                                : Progressive
  25. Bits/(Pixel*Frame)                       : 0.402
  26. Stream size                              : 13.7 GiB (92%)
  27. Language                                 : English
  28. Default                                  : No
  29. Forced                                   : No
  30. Color range                              : Limited
  31. Color primaries                          : BT.709
  32. Transfer characteristics                 : BT.709
  33. Matrix coefficients                      : BT.709
  34. Original source medium                   : Blu-ray
  35. Audio
  36. ID                                       : 2
  37. ID in the original source medium         : 4352 (0x1100)
  38. Format                                   : DTS XLL
  39. Format/Info                              : Digital Theater Systems
  40. Commercial name                          : DTS-HD Master Audio
  41. Codec ID                                 : A_DTS
  42. Duration                                 : 1 h 38 min
  43. Bit rate mode                            : Variable
  44. Bit rate                                 : 1 824 kb/s
  45. Channel(s)                               : 6 channels
  46. Channel layout                           : C L R Ls Rs LFE
  47. Sampling rate                            : 48.0 kHz
  48. Frame rate                               : 93.750 FPS (512 SPF)
  49. Bit depth                                : 16 bits
  50. Compression mode                         : Lossless
  51. Stream size                              : 1.25 GiB (8%)
  52. Title                                    : DTS-HD MA 5.1
  53. Language                                 : English
  54. Default                                  : Yes
  55. Forced                                   : No
  56. Original source medium                   : Blu-ray
  57. Text #1
  58. ID                                       : 3
  59. Format                                   : UTF-8
  60. Codec ID                                 : S_TEXT/UTF8
  61. Codec ID/Info                            : UTF-8 Plain Text
  62. Duration                                 : 1 h 35 min
  63. Bit rate                                 : 48 b/s
  64. Count of elements                        : 1408
  65. Stream size                              : 33.9 KiB (0%)
  66. Title                                    : English-SRT
  67. Language                                 : English
  68. Default                                  : Yes
  69. Forced                                   : No
  70. Text #2
  71. ID                                       : 4
  72. ID in the original source medium         : 4608 (0x1200)
  73. Format                                   : PGS
  74. Muxing mode                              : zlib
  75. Codec ID                                 : S_HDMV/PGS
  76. Codec ID/Info                            : Picture based subtitle format used on BDs/HD-DVDs
  77. Duration                                 : 1 h 35 min
  78. Bit rate                                 : 40.0 kb/s
  79. Count of elements                        : 3136
  80. Stream size                              : 27.3 MiB (0%)
  81. Title                                    : English-PGS
  82. Language                                 : English
  83. Default                                  : No
  84. Forced                                   : No
  85. Original source medium                   : Blu-ray
  86. Text #3
  87. ID                                       : 5
  88. ID in the original source medium         : 4609 (0x1201)
  89. Format                                   : PGS
  90. Muxing mode                              : zlib
  91. Codec ID                                 : S_HDMV/PGS
  92. Codec ID/Info                            : Picture based subtitle format used on BDs/HD-DVDs
  93. Duration                                 : 1 h 32 min
  94. Bit rate                                 : 31.5 kb/s
  95. Count of elements                        : 2270
  96. Stream size                              : 20.9 MiB (0%)
  97. Title                                    : Spanish-PGS
  98. Language                                 : Spanish
  99. Default                                  : No
  100. Forced                                   : No
  101. Original source medium                   : Blu-ray
  102. Menu
  103. 00:00:00.000                             : Chapter 01
  104. 00:11:29.772                             : Chapter 02
  105. 00:22:49.451                             : Chapter 03
  106. 00:33:20.081                             : Chapter 04
  107. 00:43:45.623                             : Chapter 05
  108. 00:53:43.386                             : Chapter 06
  109. 01:06:01.290                             : Chapter 07
  110. 01:17:04.786                             : Chapter 08
  111. 01:27:08.973                             : Chapter 09
复制代码




                                       
                                       

                                       
                                       
                                       




回复

使用道具 举报

懒得打字嘛,点击右侧快捷回复 【右侧内容,后台自定义】
您需要登录后才可以回帖 登录 | 立即加入

本版积分规则

Archiver| |网站地图

Copyright © 2024 Comsenz Inc. Powered by 蓝光电影网

本站内容由用户自主分享和转载自互联网,转载目的在于传递更多信息,并不代表本网赞同其观点和对其真实性负责。

如有侵权、违反国家法律政策行为,请联系我们,我们会第一时间及时清除和处理!

举报反馈邮箱:4k1080.com@gmail.com

快速回复 返回顶部 返回列表