找回密码

查看: 2111|回复: 0

[惊悚] 你的每一次呼吸 Every.Breath.You.Take.2021.1080p.BluRay.REMUX.AVC.DTS-HD.MA.5.1-FGT 20.87GB

[复制链接]
蓝光币
2048
发表于 2021-5-18 18:41:05 | 显示全部楼层 |阅读模式


◎译  名 你的每一次呼吸/You Belong to Me/你独属于我/操控(台)
◎片  名 Every Breath You Take
◎年  代 2021
◎产  地 美国
◎类  别 惊悚
◎语  言 英语
◎上映日期 2021-04-02(美国)
◎豆瓣评分 5.3/10 from 208 users
◎豆瓣链接 https://movie.douban.com/subject/20284811/
◎片  长 105分钟
◎导  演 沃恩·斯坦 Vaughn Stein / 克莉斯汀·杰弗斯 Christine Jeffs
◎主  演 卡西·阿弗莱克 Casey Affleck
       米歇尔·莫纳汉 Michelle Monaghan
       山姆·克拉弗林 Sam Claflin
       维罗尼卡·费瑞尔 Veronica Ferres
       英迪娅·埃斯利 India Eisley
       艾米丽·阿琳·林德 Emily Alyn Lind
       神奈川宏幸 Hiro Kanagawa
       文森特·盖尔 Vincent Gale
       丹尼尔·巴孔 Daniel Bacon
       克里斯·罗根 Chris Logan
       克雷格·哈斯 Craig Haas
       杰夫·桑卡 Jeff Sanca
       扎克·埃夫隆 Zac Efron
◎标  签 美国 | 惊悚 | 2021 | 卡西·阿弗莱克 | 山姆·克拉弗林 | 美国电影 | SamClaflin | CaseyAffleck
◎简  介


  卡西·阿弗莱克、山姆·克拉弗林、米歇尔·莫娜汉、维罗尼卡·费瑞尔将主演,克莉斯汀·杰弗斯([阳光清洗])执导的自力惊悚片[你的每一次呼吸](Every Breath You Take,暂译)。影片围绕一个精神科医生(阿弗莱克饰)展开,他的一位女性病人自杀后,其奇迹完全堕入危机。当他约请女病人的哥哥(克拉弗林饰)来到他家时,碰见了他的妻子(莫纳汉饰)和女儿,他的家庭却生活忽然破裂了。影片行将于11月温哥华开机。
  1. Video
  2. ID                                       : 1
  3. ID in the original source medium         : 4113 (0x1011)
  4. Format                                   : AVC
  5. Format/Info                              : Advanced Video Codec
  6. Format profile                           : [email protected]
  7. Format settings                          : CABAC / 4 Ref Frames
  8. Format settings, CABAC                   : Yes
  9. Format settings, Reference frames        : 4 frames
  10. Codec ID                                 : V_MPEG4/ISO/AVC
  11. Duration                                 : 1 h 45 min
  12. Bit rate mode                            : Variable
  13. Bit rate                                 : 22.9 Mb/s
  14. Maximum bit rate                         : 38.0 Mb/s
  15. Width                                    : 1 920 pixels
  16. Height                                   : 1 080 pixels
  17. Display aspect ratio                     : 16:9
  18. Frame rate mode                          : Constant
  19. Frame rate                               : 23.976 (24000/1001/189150) FPS
  20. Color space                              : YUV
  21. Chroma subsampling                       : 4:2:0
  22. Bit depth                                : 8 bits
  23. Scan type                                : Progressive
  24. Bits/(Pixel*Frame)                       : 0.460
  25. Stream size                              : 16.9 GiB (81%)
  26. Language                                 : English
  27. Default                                  : No
  28. Forced                                   : No
  29. Original source medium                   : Blu-ray
  30. Audio #1
  31. ID                                       : 2
  32. ID in the original source medium         : 4352 (0x1100)
  33. Format                                   : DTS XLL
  34. Format/Info                              : Digital Theater Systems
  35. Commercial name                          : DTS-HD Master Audio
  36. Codec ID                                 : A_DTS
  37. Duration                                 : 1 h 45 min
  38. Bit rate mode                            : Variable
  39. Bit rate                                 : 3 384 kb/s
  40. Channel(s)                               : 6 channels
  41. Channel layout                           : C L R Ls Rs LFE
  42. Sampling rate                            : 48.0 kHz
  43. Frame rate                               : 93.750 FPS (512 SPF)
  44. Bit depth                                : 24 bits
  45. Compression mode                         : Lossless
  46. Stream size                              : 2.50 GiB (12%)
  47. Title                                    : DTS-HD MA 5.1
  48. Language                                 : English
  49. Default                                  : Yes
  50. Forced                                   : No
  51. Original source medium                   : Blu-ray
  52. Audio #2
  53. ID                                       : 3
  54. ID in the original source medium         : 4353 (0x1101)
  55. Format                                   : DTS XLL
  56. Format/Info                              : Digital Theater Systems
  57. Commercial name                          : DTS-HD Master Audio
  58. Codec ID                                 : A_DTS
  59. Duration                                 : 1 h 45 min
  60. Bit rate mode                            : Variable
  61. Bit rate                                 : 1 993 kb/s
  62. Channel(s)                               : 2 channels
  63. Channel layout                           : L R
  64. Sampling rate                            : 48.0 kHz
  65. Frame rate                               : 93.750 FPS (512 SPF)
  66. Bit depth                                : 24 bits
  67. Compression mode                         : Lossless
  68. Stream size                              : 1.47 GiB (7%)
  69. Title                                    : DTS-HD MA 2.0
  70. Language                                 : English
  71. Default                                  : No
  72. Forced                                   : No
  73. Original source medium                   : Blu-ray
  74. Text #1
  75. ID                                       : 4
  76. Format                                   : UTF-8
  77. Codec ID                                 : S_TEXT/UTF8
  78. Codec ID/Info                            : UTF-8 Plain Text
  79. Duration                                 : 1 h 41 min
  80. Bit rate                                 : 46 b/s
  81. Count of elements                        : 1385
  82. Stream size                              : 34.8 KiB (0%)
  83. Title                                    : English-SRT
  84. Language                                 : English
  85. Default                                  : Yes
  86. Forced                                   : No
  87. Text #2
  88. ID                                       : 5
  89. ID in the original source medium         : 4608 (0x1200)
  90. Format                                   : PGS
  91. Muxing mode                              : zlib
  92. Codec ID                                 : S_HDMV/PGS
  93. Codec ID/Info                            : Picture based subtitle format used on BDs/HD-DVDs
  94. Duration                                 : 1 h 45 min
  95. Bit rate                                 : 27.3 kb/s
  96. Count of elements                        : 3209
  97. Stream size                              : 20.6 MiB (0%)
  98. Title                                    : English-PGS
  99. Language                                 : English
  100. Default                                  : No
  101. Forced                                   : No
  102. Original source medium                   : Blu-ray
  103. Menu
  104. 00:00:00.000                             : Chapter 01
  105. 00:08:33.429                             : Chapter 02
  106. 00:17:08.527                             : Chapter 03
  107. 00:25:13.178                             : Chapter 04
  108. 00:33:24.127                             : Chapter 05
  109. 00:42:13.989                             : Chapter 06
  110. 00:50:22.269                             : Chapter 07
  111. 00:59:38.241                             : Chapter 08
  112. 01:08:12.838                             : Chapter 09
  113. 01:17:00.824                             : Chapter 10
  114. 01:25:35.296                             : Chapter 11
  115. 01:34:30.289                             : Chapter 12
  116. 01:45:46.173                             : Chapter 13
复制代码




                                       
                                       

                                       
                                       
                                       




回复

使用道具 举报

懒得打字嘛,点击右侧快捷回复 【右侧内容,后台自定义】
您需要登录后才可以回帖 登录 | 立即加入

本版积分规则

Archiver| |网站地图

Copyright © 2024 Comsenz Inc. Powered by 蓝光电影网

本站内容由用户自主分享和转载自互联网,转载目的在于传递更多信息,并不代表本网赞同其观点和对其真实性负责。

如有侵权、违反国家法律政策行为,请联系我们,我们会第一时间及时清除和处理!

举报反馈邮箱:4k1080.com@gmail.com

快速回复 返回顶部 返回列表