找回密码

查看: 2127|回复: 0

[惊悚] 地平线/空中谜航 Horizon.Line.2020.1080p.BluRay.REMUX.AVC.DTS-HD.MA.5.1-FGT 23.88GB

[复制链接]
蓝光币
2039
发表于 2021-2-12 20:21:22 | 显示全部楼层 |阅读模式


◎译  名 地平线/空中谜航(台)
◎片  名 Horizon Line
◎年  代 2020
◎产  地 瑞典,美国
◎类  别 惊悚 / 灾难
◎语  言 英语
◎上映日期 2020-11-06(英国)
◎IMDb评分  4.6/10 from 3248 users
◎IMDb链接  https://www.imdb.com/title/tt5498354/
◎豆瓣评分 5.7/10 from 461 users
◎豆瓣链接 https://movie.douban.com/subject/33456921/
◎片  长 87分钟
◎导  演 米凯尔·马奇曼 Mikael Marcimain
◎编  剧 乔什·坎贝尔 Josh Campbell / 马修·斯托肯 Matthew Stuecken
◎主  演 亚历山大·德雷蒙 Alexander Dreymon
       艾莉森·威廉姆斯 Allison Williams
       凯斯·大卫 Keith David
       珀尔·麦基 Pearl Mackie
       贾马恩·亨特 Jumayn Hunter
◎标  签 灾难 | 惊悚 | 2020 | 瑞典 | 美国 | 悬疑 | 地平线 | 电影
◎简  介


  故事报告一对情侣坐小飞机去岛屿上加入婚礼,在分开小岛时飞翔员不幸突发心脏病,俩人得想法子活下来。
  1. Video
  2. ID                                       : 1
  3. ID in the original source medium         : 4113 (0x1011)
  4. Format                                   : AVC
  5. Format/Info                              : Advanced Video Codec
  6. Format profile                           : [email protected]
  7. Format settings                          : CABAC / 4 Ref Frames
  8. Format settings, CABAC                   : Yes
  9. Format settings, Reference frames        : 4 frames
  10. Codec ID                                 : V_MPEG4/ISO/AVC
  11. Duration                                 : 1 h 31 min
  12. Bit rate mode                            : Variable
  13. Bit rate                                 : 32.9 Mb/s
  14. Maximum bit rate                         : 38.0 Mb/s
  15. Width                                    : 1 920 pixels
  16. Height                                   : 1 080 pixels
  17. Display aspect ratio                     : 16:9
  18. Frame rate mode                          : Constant
  19. Frame rate                               : 23.976 (24000/1001/189150) FPS
  20. Color space                              : YUV
  21. Chroma subsampling                       : 4:2:0
  22. Bit depth                                : 8 bits
  23. Scan type                                : Progressive
  24. Bits/(Pixel*Frame)                       : 0.662
  25. Stream size                              : 21.1 GiB (89%)
  26. Language                                 : English
  27. Default                                  : No
  28. Forced                                   : No
  29. Original source medium                   : Blu-ray
  30. Audio #1
  31. ID                                       : 2
  32. ID in the original source medium         : 4352 (0x1100)
  33. Format                                   : DTS XLL
  34. Format/Info                              : Digital Theater Systems
  35. Commercial name                          : DTS-HD Master Audio
  36. Codec ID                                 : A_DTS
  37. Duration                                 : 1 h 31 min
  38. Bit rate mode                            : Variable
  39. Bit rate                                 : 4 056 kb/s
  40. Channel(s)                               : 6 channels
  41. Channel layout                           : C L R Ls Rs LFE
  42. Sampling rate                            : 48.0 kHz
  43. Frame rate                               : 93.750 FPS (512 SPF)
  44. Bit depth                                : 24 bits
  45. Compression mode                         : Lossless
  46. Stream size                              : 2.61 GiB (11%)
  47. Title                                    : DTS-HD MA 5.1
  48. Language                                 : English
  49. Default                                  : Yes
  50. Forced                                   : No
  51. Original source medium                   : Blu-ray
  52. Audio #2
  53. ID                                       : 3
  54. ID in the original source medium         : 4353 (0x1101)
  55. Format                                   : AC-3
  56. Format/Info                              : Audio Coding 3
  57. Commercial name                          : Dolby Digital
  58. Codec ID                                 : A_AC3
  59. Duration                                 : 1 h 31 min
  60. Bit rate mode                            : Constant
  61. Bit rate                                 : 192 kb/s
  62. Channel(s)                               : 2 channels
  63. Channel layout                           : L R
  64. Sampling rate                            : 48.0 kHz
  65. Frame rate                               : 31.250 FPS (1536 SPF)
  66. Compression mode                         : Lossy
  67. Stream size                              : 126 MiB (1%)
  68. Title                                    : DD 2.0
  69. Language                                 : English
  70. Service kind                             : Complete Main
  71. Default                                  : No
  72. Forced                                   : No
  73. Original source medium                   : Blu-ray
  74. Text #1
  75. ID                                       : 4
  76. Format                                   : UTF-8
  77. Codec ID                                 : S_TEXT/UTF8
  78. Codec ID/Info                            : UTF-8 Plain Text
  79. Duration                                 : 1 h 20 min
  80. Bit rate                                 : 41 b/s
  81. Count of elements                        : 881
  82. Stream size                              : 24.8 KiB (0%)
  83. Title                                    : English-SRT
  84. Language                                 : English
  85. Default                                  : Yes
  86. Forced                                   : No
  87. Text #2
  88. ID                                       : 5
  89. ID in the original source medium         : 4608 (0x1200)
  90. Format                                   : PGS
  91. Muxing mode                              : zlib
  92. Codec ID                                 : S_HDMV/PGS
  93. Codec ID/Info                            : Picture based subtitle format used on BDs/HD-DVDs
  94. Duration                                 : 1 h 22 min
  95. Bit rate                                 : 33.1 kb/s
  96. Count of elements                        : 2106
  97. Stream size                              : 19.5 MiB (0%)
  98. Title                                    : English-PGS
  99. Language                                 : English
  100. Default                                  : No
  101. Forced                                   : No
  102. Original source medium                   : Blu-ray
  103. Text #3
  104. ID                                       : 6
  105. ID in the original source medium         : 4609 (0x1201)
  106. Format                                   : PGS
  107. Muxing mode                              : zlib
  108. Codec ID                                 : S_HDMV/PGS
  109. Codec ID/Info                            : Picture based subtitle format used on BDs/HD-DVDs
  110. Duration                                 : 1 h 30 min
  111. Bit rate                                 : 21.1 kb/s
  112. Count of elements                        : 1730
  113. Stream size                              : 13.6 MiB (0%)
  114. Title                                    : Spanish-PGS
  115. Language                                 : Spanish
  116. Default                                  : No
  117. Forced                                   : No
  118. Original source medium                   : Blu-ray
  119. Menu
  120. 00:00:00.000                             : en:Chapter 01
  121. 00:05:02.719                             : en:Chapter 02
  122. 00:08:35.806                             : en:Chapter 03
  123. 00:12:02.638                             : en:Chapter 04
  124. 00:14:43.757                             : en:Chapter 05
  125. 00:17:57.117                             : en:Chapter 06
  126. 00:23:35.705                             : en:Chapter 07
  127. 00:29:23.720                             : en:Chapter 08
  128. 00:31:57.206                             : en:Chapter 09
  129. 00:38:58.919                             : en:Chapter 10
  130. 00:42:30.965                             : en:Chapter 11
  131. 00:48:51.511                             : en:Chapter 12
  132. 00:53:58.610                             : en:Chapter 13
  133. 00:58:11.237                             : en:Chapter 14
  134. 01:04:53.890                             : en:Chapter 15
  135. 01:08:17.510                             : en:Chapter 16
  136. 01:12:32.890                             : en:Chapter 17
  137. 01:15:26.730                             : en:Chapter 18
  138. 01:18:28.995                             : en:Chapter 19
  139. 01:23:45.145                             : en:Chapter 20
复制代码





                                       
                                       

                                       
                                       
                                       




回复

使用道具 举报

懒得打字嘛,点击右侧快捷回复 【右侧内容,后台自定义】
您需要登录后才可以回帖 登录 | 立即加入

本版积分规则

Archiver| |网站地图

Copyright © 2024 Comsenz Inc. Powered by 蓝光电影网

本站内容由用户自主分享和转载自互联网,转载目的在于传递更多信息,并不代表本网赞同其观点和对其真实性负责。

如有侵权、违反国家法律政策行为,请联系我们,我们会第一时间及时清除和处理!

举报反馈邮箱:4k1080.com@gmail.com

快速回复 返回顶部 返回列表