找回密码

查看: 940|回复: 0

[其他] 北极熊:一个夏天的奥德赛 Polar.Bears.A.Summer.Odysseys.2012.1080p.BluRay.x264-NORDiCHD 4.37GB

[复制链接]
蓝光币
2039
发表于 2020-9-13 14:47:49 | 显示全部楼层 |阅读模式


◎译  名 北极熊:一个炎天的奥德赛/Eisb?ren 3D/北极熊:夏日远行
◎片  名 Polar Bears:  A Summer Odyssey
◎年  代 2012
◎产  地 加拿大
◎类  别 记载片
◎语  言 英语
◎上映日期 2012-04-08(加拿大)
◎IMDb评分  7.2/10 from 296 users
◎IMDb链接  https://www.imdb.com/title/tt2403931/
◎豆瓣评分 8.5/10 from 1043 users
◎豆瓣链接 https://movie.douban.com/subject/20426944/
◎片  长 50分钟
◎标  签 记载片 | 北极熊 | 加拿大 | 自然 | 动物 | 2012 | 温情 | 北极熊:一个炎天的奥德赛
◎简  介


  Polar Bears in Hudson Bay struggle in a green world. Up close and Personal, originally shot all on native 3D.
  1. Video
  2. ID                                       : 1
  3. Format                                   : AVC
  4. Format/Info                              : Advanced Video Codec
  5. Format profile                           : [email protected]
  6. Format settings                          : CABAC / 4 Ref Frames
  7. Format settings, CABAC                   : Yes
  8. Format settings, Reference frames        : 4 frames
  9. Codec ID                                 : V_MPEG4/ISO/AVC
  10. Duration                                 : 50 min 5 s
  11. Bit rate                                 : 11.0 Mb/s
  12. Width                                    : 1 920 pixels
  13. Height                                   : 1 080 pixels
  14. Display aspect ratio                     : 16:9
  15. Frame rate mode                          : Constant
  16. Frame rate                               : 23.976 (24000/1001/189150) FPS
  17. Color space                              : YUV
  18. Chroma subsampling                       : 4:2:0
  19. Bit depth                                : 8 bits
  20. Scan type                                : Progressive
  21. Bits/(Pixel*Frame)                       : 0.221
  22. Stream size                              : 3.75 GiB (86%)
  23. Writing library                          : x264 core 129 r2245 bc13772
  24. Encoding settings                        : cabac=1 / ref=4 / deblock=1:0:0 / analyse=0x3:0x133 / me=umh / subme=7 / psy=1 / psy_rd=1.00:0.00 / mixed_ref=0 / me_range=16 / chroma_me=1 / trellis=1 / 8x8dct=1 / cqm=0 / deadzone=21,11 / fast_pskip=0 / chroma_qp_offset=-2 / threads=12 / lookahead_threads=2 / sliced_threads=0 / nr=0 / decimate=1 / interlaced=0 / bluray_compat=0 / constrained_intra=0 / bframes=5 / b_pyramid=2 / b_adapt=1 / b_bias=0 / direct=1 / weightb=1 / open_gop=0 / weightp=2 / keyint=240 / keyint_min=23 / scenecut=40 / intra_refresh=0 / rc_lookahead=40 / rc=2pass / mbtree=1 / bitrate=10973 / ratetol=1.0 / qcomp=0.60 / qpmin=10 / qpmax=51 / qpstep=4 / cplxblur=20.0 / qblur=0.5 / ip_ratio=1.40 / aq=1:1.00
  25. Language                                 : English
  26. Default                                  : Yes
  27. Forced                                   : No

  28. Audio
  29. ID                                       : 2
  30. Format                                   : DTS
  31. Format/Info                              : Digital Theater Systems
  32. Codec ID                                 : A_DTS
  33. Duration                                 : 50 min 5 s
  34. Bit rate mode                            : Constant
  35. Bit rate                                 : 1 509 kb/s
  36. Channel(s)                               : 6 channels
  37. Channel layout                           : C L R Ls Rs LFE
  38. Sampling rate                            : 48.0 kHz
  39. Frame rate                               : 93.750 FPS (512 SPF)
  40. Bit depth                                : 24 bits
  41. Compression mode                         : Lossy
  42. Stream size                              : 541 MiB (12%)
  43. Language                                 : English
  44. Default                                  : Yes
  45. Forced                                   : No

  46. Text
  47. ID                                       : 3
  48. Format                                   : UTF-8
  49. Codec ID                                 : S_TEXT/UTF8
  50. Codec ID/Info                            : UTF-8 Plain Text
  51. Language                                 : English
  52. Default                                  : No
  53. Forced                                   : No

  54. Menu
  55. 00:00:00.000                             : en:00:00:00.000
  56. 00:07:05.842                             : en:00:07:05.842
  57. 00:12:28.873                             : en:00:12:28.873
  58. 00:18:31.110                             : en:00:18:31.110
  59. 00:26:59.409                             : en:00:26:59.409
  60. 00:33:01.313                             : en:00:33:01.313
  61. 00:37:48.057                             : en:00:37:48.057
  62. 00:42:21.414                             : en:00:42:21.414
复制代码









                                       
                                       

                                       
                                       
                                       




回复

使用道具 举报

懒得打字嘛,点击右侧快捷回复 【右侧内容,后台自定义】
您需要登录后才可以回帖 登录 | 立即加入

本版积分规则

Archiver| |网站地图

Copyright © 2024 Comsenz Inc. Powered by 蓝光电影网

本站内容由用户自主分享和转载自互联网,转载目的在于传递更多信息,并不代表本网赞同其观点和对其真实性负责。

如有侵权、违反国家法律政策行为,请联系我们,我们会第一时间及时清除和处理!

举报反馈邮箱:4k1080.com@gmail.com

快速回复 返回顶部 返回列表