找回密码

查看: 1035|回复: 0

[其他] 地球四季 Seasons.2015.LIMITED.1080p.BluRay.x264-USURY 7.65GB

[复制链接]
蓝光币
2048
发表于 2020-9-4 15:14:21 | 显示全部楼层 |阅读模式


◎译  名 地球四时/Seasons/四时/欢乐季节
◎片  名 Les saisons
◎年  代 2015
◎产  地 法国,德国
◎类  别 记载片
◎语  言 法语,德语
◎上映日期 2015-10-23(东京国际电影节) / 2016-01-27(法国) / 2016-09-27(中国大陆)
◎IMDb评分  7.3/10 from 1463 users
◎IMDb链接  https://www.imdb.com/title/tt4283358/
◎豆瓣评分 7.5/10 from 4364 users
◎豆瓣链接 https://movie.douban.com/subject/26290455/
◎片  长 97分钟
◎导  演 雅克·贝汉 Jacques Perrin /  雅克·克鲁奥德 Jacques Cluzaud
◎编  剧 雅克·贝汉 Jacques Perrin /  雅克·克鲁奥德 Jacques Cluzaud
◎主  演 黄晓明 Xiaoming Huang
       蒋雯丽 Wenli Jiang
◎标  签 自然 | 法国 | 记载 | 纪实 | 生态 | 雅克贝汉 | 2016 | 环保
◎简  介


  史上票房最高的记载片《陆地》的导演雅克?贝汉与雅克?克鲁佐德的新作。雅克·贝汉《自然三部曲》系列(《迁移的鸟》、《陆地》)终结篇。
  1. Video
  2. ID                                       : 1
  3. Format                                   : AVC
  4. Format/Info                              : Advanced Video Codec
  5. Format profile                           : [email protected]
  6. Format settings                          : CABAC / 5 Ref Frames
  7. Format settings, CABAC                   : Yes
  8. Format settings, Reference frames        : 5 frames
  9. Codec ID                                 : V_MPEG4/ISO/AVC
  10. Duration                                 : 1 h 36 min
  11. Bit rate                                 : 9 898 kb/s
  12. Width                                    : 1 920 pixels
  13. Height                                   : 800 pixels
  14. Display aspect ratio                     : 2.40:1
  15. Frame rate mode                          : Constant
  16. Frame rate                               : 24.000 FPS
  17. Color space                              : YUV
  18. Chroma subsampling                       : 4:2:0
  19. Bit depth                                : 8 bits
  20. Scan type                                : Progressive
  21. Bits/(Pixel*Frame)                       : 0.269
  22. Stream size                              : 6.64 GiB (87%)
  23. Writing library                          : x264 core 148 r2744 b97ae06
  24. Encoding settings                        : cabac=1 / ref=5 / deblock=1:0:0 / analyse=0x3:0x133 / me=umh / subme=9 / psy=1 / psy_rd=1.00:0.00 / mixed_ref=1 / me_range=16 / chroma_me=1 / trellis=2 / 8x8dct=1 / cqm=0 / deadzone=21,11 / fast_pskip=0 / chroma_qp_offset=-2 / threads=25 / lookahead_threads=2 / sliced_threads=0 / nr=0 / decimate=1 / interlaced=0 / bluray_compat=0 / constrained_intra=0 / bframes=3 / b_pyramid=2 / b_adapt=1 / b_bias=0 / direct=3 / weightb=1 / open_gop=0 / weightp=2 / keyint=250 / keyint_min=24 / scenecut=40 / intra_refresh=0 / rc_lookahead=50 / rc=2pass / mbtree=1 / bitrate=9898 / ratetol=1.0 / qcomp=0.60 / qpmin=0 / qpmax=69 / qpstep=4 / cplxblur=20.0 / qblur=0.5 / ip_ratio=1.40 / aq=1:1.00
  25. Language                                 : English
  26. Default                                  : Yes
  27. Forced                                   : No

  28. Audio
  29. ID                                       : 2
  30. Format                                   : DTS
  31. Format/Info                              : Digital Theater Systems
  32. Codec ID                                 : A_DTS
  33. Duration                                 : 1 h 36 min
  34. Bit rate mode                            : Constant
  35. Bit rate                                 : 1 509 kb/s
  36. Channel(s)                               : 6 channels
  37. Channel layout                           : C L R Ls Rs LFE
  38. Sampling rate                            : 48.0 kHz
  39. Frame rate                               : 93.750 FPS (512 SPF)
  40. Bit depth                                : 24 bits
  41. Compression mode                         : Lossy
  42. Stream size                              : 1.01 GiB (13%)
  43. Language                                 : French
  44. Default                                  : Yes
  45. Forced                                   : No

  46. Text
  47. ID                                       : 3
  48. Format                                   : UTF-8
  49. Codec ID                                 : S_TEXT/UTF8
  50. Codec ID/Info                            : UTF-8 Plain Text
  51. Duration                                 : 1 h 29 min
  52. Bit rate                                 : 5 b/s
  53. Count of elements                        : 94
  54. Stream size                              : 3.49 KiB (0%)
  55. Title                                    : forced
  56. Language                                 : English
  57. Default                                  : Yes
  58. Forced                                   : Yes

  59. Menu
  60. 00:00:00.000                             : en:00:00:00.000
  61. 00:01:23.792                             : en:00:01:23.792
  62. 00:10:48.333                             : en:00:10:48.333
  63. 00:16:54.000                             : en:00:16:54.000
  64. 00:23:38.208                             : en:00:23:38.208
  65. 00:29:36.292                             : en:00:29:36.292
  66. 00:34:39.542                             : en:00:34:39.542
  67. 00:39:39.875                             : en:00:39:39.875
  68. 00:46:12.625                             : en:00:46:12.625
  69. 00:52:29.625                             : en:00:52:29.625
  70. 00:57:22.833                             : en:00:57:22.833
  71. 01:03:47.500                             : en:01:03:47.500
  72. 01:08:51.625                             : en:01:08:51.625
  73. 01:14:56.375                             : en:01:14:56.375
  74. 01:21:42.542                             : en:01:21:42.542
  75. 01:29:16.000                             : en:01:29:16.000
复制代码




                                       
                                       

                                       
                                       
                                       




回复

使用道具 举报

懒得打字嘛,点击右侧快捷回复 【右侧内容,后台自定义】
您需要登录后才可以回帖 登录 | 立即加入

本版积分规则

Archiver| |网站地图

Copyright © 2024 Comsenz Inc. Powered by 蓝光电影网

本站内容由用户自主分享和转载自互联网,转载目的在于传递更多信息,并不代表本网赞同其观点和对其真实性负责。

如有侵权、违反国家法律政策行为,请联系我们,我们会第一时间及时清除和处理!

举报反馈邮箱:4k1080.com@gmail.com

快速回复 返回顶部 返回列表