找回密码

查看: 1237|回复: 2

[其他] 在世界尽头相遇/世界尽头的奇遇 Encounters.At.The.End.Of.The.World.2007.1080p.BluRay.x264-CiNEFiLE 7.95GB

[复制链接]
蓝光币
1840
发表于 2019-7-21 06:05:11 | 显示全部楼层 |阅读模式


◎译  名 在天下绝顶相遇 / 天下绝顶的奇遇 / 冰旅记事
◎片  名 Encounters at the End of the World
◎年  代 2007
◎产  地 美国
◎类  别 记载片
◎语  言 英语 / 西班牙语
◎上映日期 2007-09-01
◎IMDb评分  7.8/10 from 16154 users
◎IMDb链接  http://www.imdb.com/title/tt1093824
◎豆瓣评分 8.8/10 from 8288 users
◎豆瓣链接 https://movie.douban.com/subject/2237378/
◎片  长 99 分钟
◎导  演 Werner Herzog
◎编  剧 Werner Herzog
◎主  演 Werner Herzog
      Samuel S. Bowser
      Regina Eisert
      David Ainley

◎标  签 记载片 | 美国 | 南极 | 2007 | 自然 | 探险 | 观光 | 人生
◎简  介  
  这部记载片的编剧、导演和旁白均由沃纳·赫尔佐格(Werner Herzog)来担任,记录了他与剧组前往南极洲拍摄当地生物、居民以及怪异地理风采的过程。这部记载片并不是一部关于南极著名的企鹅的影片,而是去摸索南极的人类生活,以及绚丽奇异的南极洲美景。他们前往由美国国家科学 基金会南极计划部分运作的南极洲最大的科学研讨中心——位于罗斯岛的麦克默多站停止拍摄,在当地采访了一些在作业、后勤、IT和保护等方面供给支援的成员后,他们连续前往海豹基地、潜水营地等南极洲人类扎营的地址,沿途碰到很多成心机的人,做了很多包括细胞生物学家塞缪尔·宝泽(Samuel Bowser)、动物学家占·保罗斯基(Jan Pawlowski)、企鹅研讨学者大卫·安利(David Ainley)等在内的简短访谈。在某种水平上,他们拍摄摸索的并不在于展现科研范畴,而在向公共揭露一种怪异的生命体验。
本片提名2009年第81届奥斯卡最好记载片奖。
◎获奖情况  
  第81届奥斯卡金像奖(2009)
  最好记载长片(提名) 沃纳·赫尔佐格 / Henry Kaiser

  1. Video
  2. ID                                       : 1
  3. Format                                   : AVC
  4. Format/Info                              : Advanced Video Codec
  5. Format profile                           : [email protected]
  6. Format settings, CABAC                   : Yes
  7. Format settings, ReFrames                : 4 frames
  8. Codec ID                                 : V_MPEG4/ISO/AVC
  9. Duration                                 : 1h 40mn
  10. Bit rate                                 : 9 781 Kbps
  11. Width                                    : 1 920 pixels
  12. Height                                   : 1 080 pixels
  13. Display aspect ratio                     : 16:9
  14. Frame rate mode                          : Constant
  15. Frame rate                               : 23.976 fps
  16. Color space                              : YUV
  17. Chroma subsampling                       : 4:2:0
  18. Bit depth                                : 8 bits
  19. Scan type                                : Progressive
  20. Bits/(Pixel*Frame)                       : 0.197
  21. Stream size                              : 6.73 GiB (85%)
  22. Writing library                          : x264 core 73 r1243 2cd0054
  23. Encoding settings                        : cabac=1 / ref=4 / deblock=1:0:0 / analyse=0x3:0x133 / me=umh / subme=7 / psy=1 / psy_rd=1.0:0.0 / mixed_ref=1 / me_range=16 / chroma_me=1 / trellis=1 / 8x8dct=1 / cqm=0 / deadzone=21,11 / chroma_qp_offset=-2 / threads=6 / nr=0 / decimate=1 / mbaff=0 / bframes=3 / b_pyramid=0 / b_adapt=1 / b_bias=0 / direct=1 / wpredb=1 / keyint=250 / keyint_min=25 / scenecut=40 / rc_lookahead=40 / rc=2pass / mbtree=1 / bitrate=9781 / ratetol=1.0 / qcomp=0.60 / qpmin=10 / qpmax=51 / qpstep=4 / cplxblur=20.0 / qblur=0.5 / ip_ratio=1.40 / aq=1:1.00
  24. Language                                 : English
  25. Default                                  : Yes
  26. Forced                                   : No
  27. Audio
  28. ID                                       : 2
  29. Format                                   : DTS
  30. Format/Info                              : Digital Theater Systems
  31. Mode                                     : 16
  32. Format settings, Endianness              : Big
  33. Codec ID                                 : A_DTS
  34. Duration                                 : 1h 40mn
  35. Bit rate mode                            : Constant
  36. Bit rate                                 : 1 509 Kbps
  37. Channel(s)                               : 6 channels
  38. Channel positions                        : Front: L C R, Side: L R, LFE
  39. Sampling rate                            : 48.0 KHz
  40. Frame rate                               : 93.750 fps (512 spf)
  41. Bit depth                                : 24 bits
  42. Compression mode                         : Lossy
  43. Stream size                              : 1.06 GiB (13%)
  44. Language                                 : English
  45. Default                                  : Yes
  46. Forced                                   : No
  47. Text
  48. ID                                       : 3
  49. Format                                   : UTF-8
  50. Codec ID                                 : S_TEXT/UTF8
  51. Codec ID/Info                            : UTF-8 Plain Text
  52. Language                                 : English
  53. Default                                  : No
  54. Forced                                   : No
复制代码









                                       
                                       

                                       
                                       
                                       




回复

使用道具 举报

蓝光币
0
发表于 2023-11-30 14:19:04 | 显示全部楼层
今天看到这个纪录片的介绍,就想找来看一下,关于那些独孤离开的企鹅,去走向冰山寻找自我
回复

使用道具 举报

蓝光币
123
发表于 2023-11-30 20:56:53 | 显示全部楼层
很不错呀,下载下来好好看看
回复

使用道具 举报

懒得打字嘛,点击右侧快捷回复 【右侧内容,后台自定义】
您需要登录后才可以回帖 登录 | 立即加入

本版积分规则

Copyright © 2024 Comsenz Inc. Powered by 蓝光电影网

本站内容由用户自主分享和转载自互联网,转载目的在于传递更多信息,并不代表本网赞同其观点和对其真实性负责。

如有侵权、违反国家法律政策行为,请联系我们,我们会第一时间及时清除和处理!

举报反馈邮箱:4k1080.com@gmail.com

快速回复 返回顶部 返回列表