找回密码

查看: 1321|回复: 0

[喜剧] 上错天堂投错胎/天堂可以等待 Heaven.Can.Wait.1978.720p.BluRay.x264-MiMiC 5.17GB

[复制链接]
蓝光币
2027
发表于 2021-12-5 08:45:56 | 显示全部楼层 |阅读模式


◎译  名 上错天堂投错胎/天堂可以期待
◎片  名 Heaven Can Wait
◎年  代 1978
◎产  地 美国
◎类  别 笑剧 / 恋爱 / 奇异 / 活动
◎语  言 英语
◎上映日期 1978-06-28
◎豆瓣评分 6.8/10 from 709 users
◎豆瓣链接 https://movie.douban.com/subject/1293809/
◎片  长 101 分钟
◎导  演 沃伦·比蒂 Warren Beatty / 巴克·亨利 Buck Henry
◎编  剧 伊莲·梅 Elaine May / 沃伦·比蒂 Warren Beatty
◎主  演 沃伦·比蒂 Warren Beatty
       朱莉·克里斯蒂 Julie Christie
       詹姆斯·梅森 James Mason
       杰克·瓦尔登 Jack Warden
       黛恩·坎农 Dyan Cannon
       查尔斯·格罗丁 Charles Grodin
◎标  签 笑剧 | 美国 | 奇异 | 美国电影 | 恋爱 | 1978 | 电影 | WarrenBeatty
◎简  介


  故事报告一位足球明星意外被车撞死,他拒绝往天堂报到,误解廓清后,他得以借尸还魂,临时附魂在一位被妻子和奸夫谋杀的百万富翁身上更生,引出笑话重重。最初,命运又放置他投胎成为另一位足球明星。
◎获奖情况
  第51届奥斯卡金像奖 ?(1979)
  最好影片(提名) 沃伦·比蒂
  最好导演(提名) 沃伦·比蒂?/?巴克·亨利
  最好男配角(提名) 沃伦·比蒂
  最好男配角(提名) 杰克·瓦尔登
  最好女配角(提名) 黛恩·坎农
  最好改编剧本(提名) 伊莲·梅?/?沃伦·比蒂
  最好摄影(提名) 威廉·弗兰克
  最好艺术指导 乔治·盖尼斯?/?保罗·席尔勃?/?埃德温·奥多诺文
  最好原创配乐(提名) 戴夫·格鲁辛
  1. Video
  2. ID                                       : 1
  3. Format                                   : AVC
  4. Format/Info                              : Advanced Video Codec
  5. Format profile                           : [email protected]
  6. Format settings                          : CABAC / 8 Ref Frames
  7. Format settings, CABAC                   : Yes
  8. Format settings, Reference frames        : 8 frames
  9. Codec ID                                 : V_MPEG4/ISO/AVC
  10. Duration                                 : 1 h 41 min
  11. Bit rate                                 : 6 663 kb/s
  12. Width                                    : 1 280 pixels
  13. Height                                   : 720 pixels
  14. Display aspect ratio                     : 16:9
  15. Frame rate mode                          : Constant
  16. Frame rate                               : 23.976 (24000/1001/189150) FPS
  17. Color space                              : YUV
  18. Chroma subsampling                       : 4:2:0
  19. Bit depth                                : 8 bits
  20. Scan type                                : Progressive
  21. Bits/(Pixel*Frame)                       : 0.302
  22. Stream size                              : 4.71 GiB (91%)
  23. Writing library                          : x264 core 164 r3075 66a5bc1
  24. Encoding settings                        : cabac=1 / ref=8 / deblock=1:0:0 / analyse=0x3:0x133 / me=umh / subme=9 / psy=1 / psy_rd=1.00:0.00 / mixed_ref=1 / me_range=16 / chroma_me=1 / trellis=2 / 8x8dct=1 / cqm=0 / deadzone=21,11 / fast_pskip=0 / chroma_qp_offset=-2 / threads=22 / lookahead_threads=1 / sliced_threads=0 / nr=0 / decimate=0 / interlaced=0 / bluray_compat=0 / constrained_intra=0 / bframes=3 / b_pyramid=2 / b_adapt=2 / b_bias=0 / direct=3 / weightb=1 / open_gop=0 / weightp=2 / keyint=240 / keyint_min=23 / scenecut=40 / intra_refresh=0 / rc=crf / mbtree=0 / crf=17.0 / qcomp=0.60 / qpmin=0 / qpmax=69 / qpstep=4 / ip_ratio=1.40 / pb_ratio=1.30 / aq=1:1.00
  25. Default                                  : Yes
  26. Forced                                   : No
  27. Color range                              : Limited
  28. Matrix coefficients                      : BT.709

  29. Audio
  30. ID                                       : 2
  31. Format                                   : FLAC
  32. Format/Info                              : Free Lossless Audio Codec
  33. Codec ID                                 : A_FLAC
  34. Duration                                 : 1 h 41 min
  35. Bit rate mode                            : Variable
  36. Bit rate                                 : 562 kb/s
  37. Channel(s)                               : 2 channels
  38. Channel layout                           : L R
  39. Sampling rate                            : 48.0 kHz
  40. Frame rate                               : 10.417 FPS (4608 SPF)
  41. Bit depth                                : 24 bits
  42. Compression mode                         : Lossless
  43. Stream size                              : 407 MiB (8%)
  44. Writing library                          : Lavf58.76.100
  45. Language                                 : English
  46. Default                                  : Yes
  47. Forced                                   : No

  48. Text #1
  49. ID                                       : 3
  50. Format                                   : PGS
  51. Muxing mode                              : zlib
  52. Codec ID                                 : S_HDMV/PGS
  53. Codec ID/Info                            : Picture based subtitle format used on BDs/HD-DVDs
  54. Duration                                 : 1 h 37 min
  55. Bit rate                                 : 51.1 kb/s
  56. Count of elements                        : 3118
  57. Stream size                              : 35.7 MiB (1%)
  58. Title                                    : English
  59. Language                                 : English
  60. Default                                  : Yes
  61. Forced                                   : No

  62. Text #2
  63. ID                                       : 4
  64. Format                                   : PGS
  65. Muxing mode                              : zlib
  66. Codec ID                                 : S_HDMV/PGS
  67. Codec ID/Info                            : Picture based subtitle format used on BDs/HD-DVDs
  68. Duration                                 : 1 h 37 min
  69. Bit rate                                 : 54.7 kb/s
  70. Count of elements                        : 3318
  71. Stream size                              : 38.3 MiB (1%)
  72. Title                                    : English -SDH
  73. Language                                 : English
  74. Default                                  : No
  75. Forced                                   : No

  76. Text #3
  77. ID                                       : 5
  78. Format                                   : PGS
  79. Muxing mode                              : zlib
  80. Codec ID                                 : S_HDMV/PGS
  81. Codec ID/Info                            : Picture based subtitle format used on BDs/HD-DVDs
  82. Duration                                 : 1 h 37 min
  83. Bit rate                                 : 36.3 kb/s
  84. Count of elements                        : 2206
  85. Stream size                              : 25.4 MiB (0%)
  86. Title                                    : French
  87. Language                                 : French
  88. Default                                  : No
  89. Forced                                   : No

  90. Text #4
  91. ID                                       : 6
  92. Format                                   : PGS
  93. Muxing mode                              : zlib
  94. Codec ID                                 : S_HDMV/PGS
  95. Codec ID/Info                            : Picture based subtitle format used on BDs/HD-DVDs
  96. Duration                                 : 1 h 37 min
  97. Bit rate                                 : 42.1 kb/s
  98. Count of elements                        : 2168
  99. Stream size                              : 29.4 MiB (1%)
  100. Title                                    : German
  101. Language                                 : German
  102. Default                                  : No
  103. Forced                                   : No

  104. Text #5
  105. ID                                       : 7
  106. Format                                   : PGS
  107. Muxing mode                              : zlib
  108. Codec ID                                 : S_HDMV/PGS
  109. Codec ID/Info                            : Picture based subtitle format used on BDs/HD-DVDs
  110. Duration                                 : 1 h 36 min
  111. Bit rate                                 : 26.7 kb/s
  112. Count of elements                        : 2506
  113. Stream size                              : 18.5 MiB (0%)
  114. Title                                    : Japanese
  115. Language                                 : Japanese
  116. Default                                  : No
  117. Forced                                   : No

  118. Text #6
  119. ID                                       : 8
  120. Format                                   : PGS
  121. Muxing mode                              : zlib
  122. Codec ID                                 : S_HDMV/PGS
  123. Codec ID/Info                            : Picture based subtitle format used on BDs/HD-DVDs
  124. Duration                                 : 1 h 37 min
  125. Bit rate                                 : 39.2 kb/s
  126. Count of elements                        : 2160
  127. Stream size                              : 27.4 MiB (1%)
  128. Language                                 : Spanish
  129. Default                                  : No
  130. Forced                                   : No

  131. Text #7
  132. ID                                       : 9
  133. Format                                   : PGS
  134. Muxing mode                              : zlib
  135. Codec ID                                 : S_HDMV/PGS
  136. Codec ID/Info                            : Picture based subtitle format used on BDs/HD-DVDs
  137. Duration                                 : 1 h 37 min
  138. Bit rate                                 : 39.2 kb/s
  139. Count of elements                        : 2160
  140. Stream size                              : 27.4 MiB (1%)
  141. Language                                 : Spanish
  142. Default                                  : No
  143. Forced                                   : No

  144. Text #8
  145. ID                                       : 10
  146. Format                                   : PGS
  147. Muxing mode                              : zlib
  148. Codec ID                                 : S_HDMV/PGS
  149. Codec ID/Info                            : Picture based subtitle format used on BDs/HD-DVDs
  150. Duration                                 : 1 h 39 min
  151. Bit rate                                 : 47 b/s
  152. Count of elements                        : 6
  153. Stream size                              : 34.5 KiB (0%)
  154. Title                                    : Spanish descriptions
  155. Language                                 : Spanish
  156. Default                                  : No
  157. Forced                                   : No

  158. Text #9
  159. ID                                       : 11
  160. Format                                   : PGS
  161. Muxing mode                              : zlib
  162. Codec ID                                 : S_HDMV/PGS
  163. Codec ID/Info                            : Picture based subtitle format used on BDs/HD-DVDs
  164. Duration                                 : 1 h 39 min
  165. Bit rate                                 : 92 b/s
  166. Count of elements                        : 8
  167. Stream size                              : 67.8 KiB (0%)
  168. Title                                    : German descriptions
  169. Language                                 : German
  170. Default                                  : No
  171. Forced                                   : No

  172. Text #10
  173. ID                                       : 12
  174. Format                                   : PGS
  175. Muxing mode                              : zlib
  176. Codec ID                                 : S_HDMV/PGS
  177. Codec ID/Info                            : Picture based subtitle format used on BDs/HD-DVDs
  178. Duration                                 : 35 min 30 s
  179. Bit rate                                 : 100 b/s
  180. Count of elements                        : 4
  181. Stream size                              : 26.2 KiB (0%)
  182. Title                                    : French descriptions
  183. Language                                 : French
  184. Default                                  : No
  185. Forced                                   : No

  186. Menu
  187. 00:00:00.000                             : en:Chapter 01
  188. 00:04:21.011                             : en:Chapter 02
  189. 00:08:09.114                             : en:Chapter 03
  190. 00:11:14.883                             : en:Chapter 04
  191. 00:14:56.938                             : en:Chapter 05
  192. 00:17:02.480                             : en:Chapter 06
  193. 00:24:51.407                             : en:Chapter 07
  194. 00:29:12.668                             : en:Chapter 08
  195. 00:36:44.536                             : en:Chapter 09
  196. 00:42:57.742                             : en:Chapter 10
  197. 00:45:40.780                             : en:Chapter 11
  198. 00:49:34.805                             : en:Chapter 12
  199. 00:52:29.980                             : en:Chapter 13
  200. 01:00:15.028                             : en:Chapter 14
  201. 01:01:47.787                             : en:Chapter 15
  202. 01:08:34.652                             : en:Chapter 16
  203. 01:13:07.049                             : en:Chapter 17
  204. 01:17:54.962                             : en:Chapter 18
  205. 01:25:14.234                             : en:Chapter 19
  206. 01:28:45.278                             : en:Chapter 20
  207. 01:34:37.380                             : en:Chapter 21
  208. 01:38:26.567                             : en:Chapter 22
复制代码





                                       
                                       

                                       
                                       
                                       




回复

使用道具 举报

懒得打字嘛,点击右侧快捷回复 【右侧内容,后台自定义】
您需要登录后才可以回帖 登录 | 立即加入

本版积分规则

Archiver| |网站地图

Copyright © 2024 Comsenz Inc. Powered by 蓝光电影网

本站内容由用户自主分享和转载自互联网,转载目的在于传递更多信息,并不代表本网赞同其观点和对其真实性负责。

如有侵权、违反国家法律政策行为,请联系我们,我们会第一时间及时清除和处理!

举报反馈邮箱:4k1080.com@gmail.com

快速回复 返回顶部 返回列表