找回密码

蓝光电影网

查看: 13969|回复: 132

[2160p-WEB] 永恒族 [IMAX版][内封中字]Eternals.2021.IMAX.HDR.2160p.WEB.h265-KOGi 18.95GB

  [复制链接]
蓝光币
815
发表于 2022-1-13 16:15:48 | 显示全部楼层 |阅读模式


◎译  名 永久族/The Eternals/永久神族
◎片  名 Eternals
◎年  代 2021
◎产  地 美国
◎类  别 行动 / 科幻 / 奇异 / 冒险
◎语  言 英语,美国手语,西班牙语,拉丁语,古希腊语
◎上映日期 2021-11-05(美国)
◎豆瓣评分 6.2/10 from 22451 users
◎豆瓣链接 https://movie.douban.com/subject/30223888/
◎片  长 157分钟
◎导  演 赵婷 Chloé Zhao
◎编  剧 赵婷 Chloé Zhao / 帕特里克·伯利 Patrick Burleigh / 瑞恩·弗雷波 Ryan Firpo / 马修·弗雷波 Matthew K. Firpo / 杰克·科比 Jack Kirby
◎主  演 嘉玛·陈 Gemma Chan
       理查德·麦登 Richard Madden
       安吉丽娜·朱莉 Angelina Jolie
       萨尔玛·海耶克 Salma Hayek
       库梅尔·南贾尼 Kumail Nanjiani
       莉亚·麦克休 Lia McHugh
       布莱恩·泰里·亨利 Brian Tyree Henry
       劳伦·利德洛夫 Lauren Ridloff
       巴里·基奥恩 Barry Keoghan
       马东锡 Don Lee
       基特·哈灵顿 Kit Harington
       哈里什·帕特尔 Harish Patel
       比尔·斯卡斯加德 Bill Skarsg?rd
       哈斯·塞雷曼 Haaz Sleiman
       以扫·丹尼尔·克罗斯 Esai Daniel Cross
       哈里·斯泰尔斯 Harry Styles
       艾伦·斯科特 Alan Scott
       汉娜·多德 Hannah Dodd
       妮基塔·查达哈 Nikkita Chadha
       格雷厄姆·福克斯 Grahame Fox
       赞恩·阿尔·拉菲亚 Zain al-Rafeea
       卢西娅·埃夫斯塔希奥 Lucia Efstathiou
       帕顿·奥斯瓦尔特 Patton Oswalt
       大卫·卡耶 David Kaye
       马赫沙拉·阿里 Mahershala Ali
       布伦达·洛伦娜·加西亚 Brenda Lorena Garcia
       吉安尼·卡尔切蒂 Gianni Calchetti
◎简  介


  漫威影业出品的《永久族》报告了一群太古豪杰的故事。他们来自于悠远的星球,从人类诞生之初就庇护着地球。当已销声匿迹多时的异常族怪物奥秘地东山复兴时,永久族被迫重新团圆,以再次庇护人类。
  1. Video
  2. ID                                       : 1
  3. Format                                   : HEVC
  4. Format/Info                              : High Efficiency Video Coding
  5. Format profile                           : Main [email protected]@High
  6. HDR format                               : SMPTE ST 2086, HDR10 compatible
  7. Codec ID                                 : V_MPEGH/ISO/HEVC
  8. Duration                                 : 2 h 35 min
  9. Bit rate                                 : 16.5 Mb/s
  10. Width                                    : 3 840 pixels
  11. Height                                   : 2 160 pixels
  12. Display aspect ratio                     : 16:9
  13. Frame rate mode                          : Constant
  14. Frame rate                               : 23.976 (24000/1001/189150) FPS
  15. Color space                              : YUV
  16. Chroma subsampling                       : 4:2:0
  17. Bit depth                                : 10 bits
  18. Bits/(Pixel*Frame)                       : 0.083
  19. Stream size                              : 18.0 GiB (96%)
  20. Language                                 : English
  21. Default                                  : Yes
  22. Forced                                   : No
  23. Color range                              : Limited
  24. Color primaries                          : BT.2020
  25. Transfer characteristics                 : PQ
  26. Matrix coefficients                      : BT.2020 non-constant
  27. Mastering display color primaries        : Display P3
  28. Mastering display luminance              : min: 0.0000 cd/m2, max: 1000 cd/m2

  29. Audio
  30. ID                                       : 2
  31. Format                                   : E-AC-3 JOC
  32. Format/Info                              : Enhanced AC-3 with Joint Object Coding
  33. Commercial name                          : Dolby Digital Plus with Dolby Atmos
  34. Codec ID                                 : A_EAC3
  35. Duration                                 : 2 h 35 min
  36. Bit rate mode                            : Constant
  37. Bit rate                                 : 768 kb/s
  38. Channel(s)                               : 6 channels
  39. Channel layout                           : L R C LFE Ls Rs
  40. Sampling rate                            : 48.0 kHz
  41. Frame rate                               : 31.250 FPS (1536 SPF)
  42. Compression mode                         : Lossy
  43. Stream size                              : 856 MiB (4%)
  44. Language                                 : English
  45. Service kind                             : Complete Main
  46. Default                                  : Yes
  47. Forced                                   : No
  48. Complexity index                         : 16
  49. Number of dynamic objects                : 15
  50. Bed channel count                        : 1 channel
  51. Bed channel configuration                : LFE

  52. Text #1
  53. ID                                       : 3
  54. Format                                   : UTF-8
  55. Codec ID                                 : S_TEXT/UTF8
  56. Codec ID/Info                            : UTF-8 Plain Text
  57. Duration                                 : 2 h 33 min
  58. Bit rate                                 : 50 b/s
  59. Count of elements                        : 2165
  60. Stream size                              : 56.9 KiB (0%)
  61. Title                                    : English (SDH)
  62. Language                                 : English
  63. Default                                  : No
  64. Forced                                   : No

  65. Text #2
  66. ID                                       : 4
  67. Format                                   : UTF-8
  68. Codec ID                                 : S_TEXT/UTF8
  69. Codec ID/Info                            : UTF-8 Plain Text
  70. Duration                                 : 2 h 35 min
  71. Bit rate                                 : 37 b/s
  72. Count of elements                        : 1108
  73. Stream size                              : 43.0 KiB (0%)
  74. Title                                    : Dansk
  75. Language                                 : Danish
  76. Default                                  : No
  77. Forced                                   : No

  78. Text #3
  79. ID                                       : 5
  80. Format                                   : UTF-8
  81. Codec ID                                 : S_TEXT/UTF8
  82. Codec ID/Info                            : UTF-8 Plain Text
  83. Duration                                 : 2 h 35 min
  84. Bit rate                                 : 72 b/s
  85. Count of elements                        : 1651
  86. Stream size                              : 82.0 KiB (0%)
  87. Title                                    : Greek
  88. Language                                 : Greek
  89. Default                                  : No
  90. Forced                                   : No

  91. Text #4
  92. ID                                       : 6
  93. Format                                   : UTF-8
  94. Codec ID                                 : S_TEXT/UTF8
  95. Codec ID/Info                            : UTF-8 Plain Text
  96. Duration                                 : 2 h 35 min
  97. Bit rate                                 : 42 b/s
  98. Count of elements                        : 1666
  99. Stream size                              : 48.4 KiB (0%)
  100. Title                                    : Suomi
  101. Language                                 : Finnish
  102. Default                                  : No
  103. Forced                                   : No

  104. Text #5
  105. ID                                       : 7
  106. Format                                   : UTF-8
  107. Codec ID                                 : S_TEXT/UTF8
  108. Codec ID/Info                            : UTF-8 Plain Text
  109. Duration                                 : 2 h 35 min
  110. Bit rate                                 : 44 b/s
  111. Count of elements                        : 1694
  112. Stream size                              : 51.0 KiB (0%)
  113. Title                                    : Fran?ais (Canadien)
  114. Language                                 : French
  115. Default                                  : No
  116. Forced                                   : No

  117. Text #6
  118. ID                                       : 8
  119. Format                                   : UTF-8
  120. Codec ID                                 : S_TEXT/UTF8
  121. Codec ID/Info                            : UTF-8 Plain Text
  122. Duration                                 : 2 h 35 min
  123. Bit rate                                 : 42 b/s
  124. Count of elements                        : 1644
  125. Stream size                              : 48.4 KiB (0%)
  126. Title                                    : íslenska
  127. Language                                 : Icelandic
  128. Default                                  : No
  129. Forced                                   : No

  130. Text #7
  131. ID                                       : 9
  132. Format                                   : UTF-8
  133. Codec ID                                 : S_TEXT/UTF8
  134. Codec ID/Info                            : UTF-8 Plain Text
  135. Duration                                 : 2 h 35 min
  136. Bit rate                                 : 39 b/s
  137. Count of elements                        : 1495
  138. Stream size                              : 44.8 KiB (0%)
  139. Title                                    : Japanese
  140. Language                                 : Japanese
  141. Default                                  : No
  142. Forced                                   : No

  143. Text #8
  144. ID                                       : 10
  145. Format                                   : UTF-8
  146. Codec ID                                 : S_TEXT/UTF8
  147. Codec ID/Info                            : UTF-8 Plain Text
  148. Duration                                 : 2 h 35 min
  149. Bit rate                                 : 39 b/s
  150. Count of elements                        : 1400
  151. Stream size                              : 45.0 KiB (0%)
  152. Title                                    : Nederlands
  153. Language                                 : Dutch
  154. Default                                  : No
  155. Forced                                   : No

  156. Text #9
  157. ID                                       : 11
  158. Format                                   : UTF-8
  159. Codec ID                                 : S_TEXT/UTF8
  160. Codec ID/Info                            : UTF-8 Plain Text
  161. Duration                                 : 2 h 35 min
  162. Bit rate                                 : 39 b/s
  163. Count of elements                        : 1653
  164. Stream size                              : 44.4 KiB (0%)
  165. Title                                    : Norsk
  166. Language                                 : Norwegian
  167. Default                                  : No
  168. Forced                                   : No

  169. Text #10
  170. ID                                       : 12
  171. Format                                   : UTF-8
  172. Codec ID                                 : S_TEXT/UTF8
  173. Codec ID/Info                            : UTF-8 Plain Text
  174. Duration                                 : 2 h 35 min
  175. Bit rate                                 : 38 b/s
  176. Count of elements                        : 1602
  177. Stream size                              : 43.5 KiB (0%)
  178. Title                                    : Polski
  179. Language                                 : Polish
  180. Default                                  : No
  181. Forced                                   : No

  182. Text #11
  183. ID                                       : 13
  184. Format                                   : UTF-8
  185. Codec ID                                 : S_TEXT/UTF8
  186. Codec ID/Info                            : UTF-8 Plain Text
  187. Duration                                 : 2 h 35 min
  188. Bit rate                                 : 40 b/s
  189. Count of elements                        : 1635
  190. Stream size                              : 46.5 KiB (0%)
  191. Title                                    : Português
  192. Language                                 : Portuguese
  193. Default                                  : No
  194. Forced                                   : No

  195. Text #12
  196. ID                                       : 14
  197. Format                                   : UTF-8
  198. Codec ID                                 : S_TEXT/UTF8
  199. Codec ID/Info                            : UTF-8 Plain Text
  200. Duration                                 : 2 h 35 min
  201. Bit rate                                 : 39 b/s
  202. Count of elements                        : 1316
  203. Stream size                              : 44.5 KiB (0%)
  204. Title                                    : Svenska
  205. Language                                 : Swedish
  206. Default                                  : No
  207. Forced                                   : No

  208. Text #13
  209. ID                                       : 15
  210. Format                                   : UTF-8
  211. Codec ID                                 : S_TEXT/UTF8
  212. Codec ID/Info                            : UTF-8 Plain Text
  213. Duration                                 : 2 h 35 min
  214. Bit rate                                 : 39 b/s
  215. Count of elements                        : 1677
  216. Stream size                              : 45.4 KiB (0%)
  217. Title                                    : Chinese (Simplified)
  218. Language                                 : Chinese
  219. Default                                  : No
  220. Forced                                   : No

  221. Text #14
  222. ID                                       : 16
  223. Format                                   : UTF-8
  224. Codec ID                                 : S_TEXT/UTF8
  225. Codec ID/Info                            : UTF-8 Plain Text
  226. Duration                                 : 2 h 35 min
  227. Bit rate                                 : 33 b/s
  228. Count of elements                        : 1663
  229. Stream size                              : 37.8 KiB (0%)
  230. Title                                    : Chinese (Hong Kong)
  231. Language                                 : Chinese
  232. Default                                  : No
  233. Forced                                   : No

  234. Text #15
  235. ID                                       : 17
  236. Format                                   : UTF-8
  237. Codec ID                                 : S_TEXT/UTF8
  238. Codec ID/Info                            : UTF-8 Plain Text
  239. Duration                                 : 2 h 35 min
  240. Bit rate                                 : 34 b/s
  241. Count of elements                        : 1679
  242. Stream size                              : 39.7 KiB (0%)
  243. Title                                    : Chinese (Traditional)
  244. Language                                 : Chinese
  245. Default                                  : No
  246. Forced                                   : No
复制代码









                                       
                                       

                                       
                                       
                                       




回复

使用道具 举报

蓝光币
35
发表于 2022-1-13 17:02:10 | 显示全部楼层
收藏了,谢谢分享!
回复 支持 反对

使用道具 举报

蓝光币
56
发表于 2022-1-13 20:17:49 | 显示全部楼层
谢谢分享
回复

使用道具 举报

蓝光币
11
发表于 2022-1-13 20:23:54 | 显示全部楼层
终于出来了,谢谢楼主的资源。
回复 支持 反对

使用道具 举报

蓝光币
79
发表于 2022-1-13 20:44:19 | 显示全部楼层
楼主发贴辛苦了,谢谢楼主分享!我觉得蓝光电影网是注册对了!
回复 支持 反对

使用道具 举报

蓝光币
0
发表于 2022-1-13 22:28:57 | 显示全部楼层
谢谢楼主的资源。
回复 支持 反对

使用道具 举报

蓝光币
7
发表于 2022-1-13 23:18:47 | 显示全部楼层
楼主发贴辛苦了,谢谢楼主分享
回复 支持 反对

使用道具 举报

蓝光币
1010
发表于 2022-1-14 00:58:57 | 显示全部楼层
楼主发贴辛苦了,谢谢楼主分享!我觉得蓝光电影网是注册对了!
回复 支持 反对

使用道具 举报

蓝光币
52
发表于 2022-1-14 08:18:49 | 显示全部楼层
楼主发贴辛苦了,谢谢楼主分享
回复 支持 反对

使用道具 举报

蓝光币
203
发表于 2022-1-14 08:58:53 | 显示全部楼层
楼主发贴辛苦了,谢谢楼主分享!我觉得蓝光电影网是注册对了!
回复 支持 反对

使用道具 举报

懒得打字嘛,点击右侧快捷回复 【右侧内容,后台自定义】
您需要登录后才可以回帖 登录 | 立即加入

本版积分规则

Archiver|小黑屋| 蓝光电影网 |网站地图

Copyright © 2021 Comsenz Inc. Powered by 蓝光电影网

蓝光电影网

本站内容由用户自主分享和转载自互联网,转载目的在于传递更多信息,并不代表本网赞同其观点和对其真实性负责。

如有侵权、违反国家法律政策行为,请联系我们,我们会第一时间及时清除和处理!

举报反馈邮箱:[email protected]

快速回复 返回顶部 返回列表