找回密码

查看: 1257|回复: 0

[喜剧] 花开骑士/勇士的奇遇 Fan-Fan.The.Tulip.1952.FRENCH.1080p.BluRay.x264.FLAC.1.0-HANDJOB 11.68GB

[复制链接]
蓝光币
1840
发表于 2022-1-15 08:55:20 | 显示全部楼层 |阅读模式


◎译  名 花开骑士/勇士的奇遇/郁金香芳芳
◎片  名 Fanfan la Tulipe
◎年  代 1952
◎产  地 意大利,法国
◎类  别 笑剧 / 恋爱 / 战争 / 冒险
◎语  言 法语
◎上映日期 1952-07-31
◎豆瓣评分 7.5/10 from 549 users
◎豆瓣链接 https://movie.douban.com/subject/1298539/
◎片  长 102分钟
◎导  演 克里斯蒂昂-雅克 Christian-Jaque
◎编  剧 克里斯蒂昂-雅克 Christian-Jaque / 亨利·让松 Henri Jeanson / 勒内·法莱 René Fallet / 勒·惠勒 René Wheeler
◎主  演 热拉尔·菲利普 Gérard Philipe
       吉娜·劳洛勃丽吉达 Gina Lollobrigida
       Olivier Hussenot Olivier Hussenot
       Sylvie Pelayo Sylvie Pelayo
       让·帕雷代 Jean Parédès
       吉内瓦维·佩吉 Geneviève Page
       诺埃尔·罗克韦尔 No?l Roquevert
       亨利·罗兰 Henri Rollan
       Jean-Marc Tennberg Jean-Marc Tennberg
       海勒姆·舍曼 Hiram Sherman
       马塞尔·埃朗 Marcel Herrand
       Hennery Hennery
       若尔热特·阿尼斯 Georgette Anys
       尼里奥·贝尔纳迪 Nerio Bernardi
       格雷德·布尔 Gérard Buhr
       吕西安·卡拉曼 Lucien Callamand
       让·德比古 Jean Debucourt
       Gil Delamare Gil Delamare
       Irène Young Irène Young
◎简  介


  十八世纪中叶,法国公众正在国王路易十五的率领下享用战争带来的兴趣。由于比年战争致使兵员锐减,军队不能不四周召募青壮。英俊青年芳芳(Gérard Philipe 饰)漂泊小镇,与当地姑娘发生关系,为逃走女方父亲的逼婚,芳芳只得加入军队。征兵军曹的女儿阿德琳(Gina Lollobrigida 饰)预言芳芳将成为将军,并迎娶国王的女儿。
  
  芳芳在参军路上竟真的碰到国王之女兴旺多,蒙赐郁金香一朵,芳芳今后对公主魂牵梦绕,没有留意到与他日久生情的阿德琳。为见公主,他夜闯行宫惹下大祸,阿德琳捐躯搭救,让他得以在敌后大展拳脚。终极有情人终成家属,而当初的预言也完全应验。本片获1952年柏林电影节最好导演银熊奖,戛纳电影节最好导演奖。
◎获奖情况
  第5届戛纳电影节 ?(1952)
  主比赛单元金棕榈奖(提名) 克里斯蒂昂-雅克
  主比赛单元最好导演 克里斯蒂昂-雅克
  
  第2届柏林国际电影节 ?(1952)
  银熊奖 克里斯蒂昂-雅克
  1. Video
  2. ID                                       : 1
  3. Format                                   : AVC
  4. Format/Info                              : Advanced Video Codec
  5. Format profile                           : [email protected]
  6. Format settings                          : CABAC / 5 Ref Frames
  7. Format settings, CABAC                   : Yes
  8. Format settings, Reference frames        : 5 frames
  9. Codec ID                                 : V_MPEG4/ISO/AVC
  10. Duration                                 : 1 h 39 min
  11. Bit rate                                 : 16.5 Mb/s
  12. Width                                    : 1 480 pixels
  13. Height                                   : 1 080 pixels
  14. Display aspect ratio                     : 1.370
  15. Frame rate mode                          : Constant
  16. Frame rate                               : 24.000 FPS
  17. Color space                              : YUV
  18. Chroma subsampling                       : 4:2:0
  19. Bit depth                                : 8 bits
  20. Scan type                                : Progressive
  21. Bits/(Pixel*Frame)                       : 0.431
  22. Stream size                              : 11.5 GiB (98%)
  23. Writing library                          : x264 core 157 r2935 545de2f
  24. Encoding settings                        : cabac=1 / ref=5 / deblock=1:-3:-3 / analyse=0x3:0x133 / me=umh / subme=10 / psy=1 / psy_rd=1.00:0.00 / mixed_ref=1 / me_range=32 / chroma_me=1 / trellis=2 / 8x8dct=1 / cqm=0 / deadzone=21,11 / fast_pskip=0 / chroma_qp_offset=-2 / threads=18 / lookahead_threads=4 / sliced_threads=0 / nr=0 / decimate=0 / interlaced=0 / bluray_compat=0 / constrained_intra=0 / bframes=16 / b_pyramid=2 / b_adapt=2 / b_bias=0 / direct=3 / weightb=1 / open_gop=0 / weightp=1 / keyint=240 / keyint_min=24 / scenecut=40 / intra_refresh=0 / rc_lookahead=60 / rc=crf / mbtree=0 / crf=22.5 / qcomp=0.60 / qpmin=0 / qpmax=69 / qpstep=4 / vbv_maxrate=62500 / vbv_bufsize=78125 / crf_max=0.0 / nal_hrd=none / filler=0 / ip_ratio=1.40 / pb_ratio=1.30 / aq=2:1.00
  25. Default                                  : Yes
  26. Forced                                   : No
  27. Color range                              : Limited
  28. Color primaries                          : BT.709
  29. Transfer characteristics                 : BT.709
  30. Matrix coefficients                      : BT.709
  31. Audio
  32. ID                                       : 2
  33. Format                                   : FLAC
  34. Format/Info                              : Free Lossless Audio Codec
  35. Codec ID                                 : A_FLAC
  36. Duration                                 : 1 h 39 min
  37. Bit rate mode                            : Variable
  38. Bit rate                                 : 281 kb/s
  39. Channel(s)                               : 1 channel
  40. Channel layout                           : C
  41. Sampling rate                            : 48.0 kHz
  42. Frame rate                               : 11.719 FPS (4096 SPF)
  43. Bit depth                                : 16 bits
  44. Compression mode                         : Lossless
  45. Stream size                              : 200 MiB (2%)
  46. Writing library                          : libFLAC 1.3.3 (UTC 2019-08-04)
  47. Language                                 : French
  48. Default                                  : Yes
  49. Forced                                   : No
  50. Text
  51. ID                                       : 3
  52. Format                                   : UTF-8
  53. Codec ID                                 : S_TEXT/UTF8
  54. Codec ID/Info                            : UTF-8 Plain Text
  55. Duration                                 : 1 h 36 min
  56. Bit rate                                 : 50 b/s
  57. Count of elements                        : 1082
  58. Stream size                              : 35.9 KiB (0%)
  59. Title                                    : Criterion (OCR)
  60. Language                                 : English
  61. Default                                  : Yes
  62. Forced                                   : No
  63. Menu
  64. 00:00:00.000                             : :Opening Credits
  65. 00:01:52.500                             : :Eighteenth-Century France
  66. 00:07:10.833                             : :Fanfan
  67. 00:13:58.958                             : :"Thank You, Adeline"
  68. 00:19:53.917                             : :The King\'s Daughter
  69. 00:23:23.958                             : :Recruits
  70. 00:29:15.750                             : :Insubordinate
  71. 00:33:12.625                             : :Rooftop Duel
  72. 00:38:33.167                             : :"Charming Mustache"
  73. 00:43:40.792                             : :The Castle
  74. 00:48:53.292                             : :"Bad News?"
  75. 00:54:12.167                             : :Unrequited Love
  76. 00:58:31.292                             : :Adeline and the King
  77. 01:04:57.167                             : :"My Kind of Woman"
  78. 01:12:21.083                             : :To the Rescue
  79. 01:19:57.958                             : :Behind Enemy Lines
  80. 01:25:01.917                             : :"So, You Do Love Me?"
  81. 01:31:30.042                             : :White Flag
复制代码







                                       
                                       

                                       
                                       
                                       




回复

使用道具 举报

懒得打字嘛,点击右侧快捷回复 【右侧内容,后台自定义】
您需要登录后才可以回帖 登录 | 立即加入

本版积分规则

Copyright © 2024 Comsenz Inc. Powered by 蓝光电影网

本站内容由用户自主分享和转载自互联网,转载目的在于传递更多信息,并不代表本网赞同其观点和对其真实性负责。

如有侵权、违反国家法律政策行为,请联系我们,我们会第一时间及时清除和处理!

举报反馈邮箱:4k1080.com@gmail.com

快速回复 返回顶部 返回列表