找回密码

蓝光电影网

查看: 218|回复: 0

[喜剧] 纽约星期天 Sunday.in.New.York.1963.720p.BluRay.x264-ORBS 4.58GB

[复制链接]
蓝光币
815
发表于 2022-1-23 08:25:16 | 显示全部楼层 |阅读模式


◎译  名 纽约星期天
◎片  名 Sunday in New York
◎年  代 1963
◎产  地 美国
◎类  别 笑剧 / 恋爱
◎语  言 英语
◎上映日期 1963-11-13
◎IMDb链接 https://www.imdb.com/title/tt0057543/
◎豆瓣评分 6.4/10 (210人评价)
◎豆瓣链接 https://movie.douban.com/subject/2081605/
◎片  长 105 分钟
◎导  演 彼得·图克斯伯里 Peter Tewksbury (id:1001603)
◎编  剧 诺曼·克拉斯娜 Norman Krasna (id:1042098)
◎演  员 克里夫·罗伯逊 Cliff Robertson (id:1049774)
       罗德·泰勒 Rod Taylor (id:1013929)
       吉姆·哈顿 Jim Hutton (id:1018088)
       Peter Nero Peter Nero (id:1018824)
       罗伯特威廉姆斯 Robert Williams (id:1166136)
       罗伯特·考普 Robert Culp (id:1025241)
       奥兰·索尔 Olan Soule (id:1155135)
       乔·莫罗 Jo Morrow (id:1134151)
       吉姆·巴克斯 Jim Backus (id:1032049)
       萨姆·弗林特 Sam Flint (id:1089152)
       简·方达 Jane Fonda (id:1036404)
       艾维·摩尔 Alvy Moore (id:1036874)
       Rayford Barnes Rayford Barnes (id:1066801)
       埃弗里特·弗里曼 Everett Freeman (id:1008659)
       Peter Nero Peter Nero (id:1018824)
       利奥·托弗尔 Leo Tover (id:1038178)
       弗雷德里克·斯坦坎普 Fredric Steinkamp (id:1025754)
       亨利·格雷斯 Henry Grace (id:1099103)
       乔治·W·戴维斯 George W. Davis (id:1003645)
       爱德华·C·卡法诺 Edward C. Carfagno (id:1038206)
       乔治·R·尼尔森 George R. Nelson (id:1127400)
       悉尼·盖瑞拉弗 Sydney Guilaroff (id:1100558)
       威廉·塔特尔 William Tuttle (id:1158879)
       Eli Dunn Eli Dunn (id:1085090)
◎简  介

  Eileen is 22 and is smarting from her breakup with Russ. She comes to New York to visit her brother, Adam, who is an airline pilot. Eileen confides to her brother that she thinks she may be the only 22 year old virgin left in the world. Adam assures her that sex is not what all men look for and insists he hasn't slept around. Of course, Adam is lying and is in hot pursuit of a ...
  1. Video
  2. ID                                       : 1
  3. Format                                   : AVC
  4. Format/Info                              : Advanced Video Codec
  5. Format profile                           : [email protected]
  6. Format settings                          : CABAC / 9 Ref Frames
  7. Format settings, CABAC                   : Yes
  8. Format settings, Reference frames        : 9 frames
  9. Codec ID                                 : V_MPEG4/ISO/AVC
  10. Duration                                 : 1 h 44 min
  11. Bit rate                                 : 5 918 kb/s
  12. Width                                    : 1 280 pixels
  13. Height                                   : 692 pixels
  14. Display aspect ratio                     : 1.85:1
  15. Frame rate mode                          : Constant
  16. Frame rate                               : 23.976 (24000/1001/189150) FPS
  17. Color space                              : YUV
  18. Chroma subsampling                       : 4:2:0
  19. Bit depth                                : 8 bits
  20. Scan type                                : Progressive
  21. Bits/(Pixel*Frame)                       : 0.279
  22. Stream size                              : 4.34 GiB (95%)
  23. Writing library                          : x264 core 164 r3079 d9a19f0
  24. Encoding settings                        : cabac=1 / ref=9 / deblock=1:-3:-3 / analyse=0x3:0x133 / me=umh / subme=10 / psy=1 / psy_rd=1.20:0.00 / mixed_ref=1 / me_range=24 / chroma_me=1 / trellis=2 / 8x8dct=1 / cqm=0 / deadzone=21,11 / fast_pskip=0 / chroma_qp_offset=-2 / threads=22 / lookahead_threads=3 / sliced_threads=0 / nr=0 / decimate=0 / interlaced=0 / bluray_compat=0 / constrained_intra=0 / bframes=8 / b_pyramid=2 / b_adapt=2 / b_bias=0 / direct=3 / weightb=1 / open_gop=0 / weightp=2 / keyint=250 / keyint_min=23 / scenecut=40 / intra_refresh=0 / rc_lookahead=60 / rc=crf / mbtree=1 / crf=19.0 / qcomp=0.60 / qpmin=0 / qpmax=69 / qpstep=4 / ip_ratio=1.40 / aq=3:0.90
  25. Default                                  : Yes
  26. Forced                                   : No
  27. Color range                              : Limited
  28. Matrix coefficients                      : BT.709

  29. Audio
  30. ID                                       : 2
  31. Format                                   : FLAC
  32. Format/Info                              : Free Lossless Audio Codec
  33. Codec ID                                 : A_FLAC
  34. Duration                                 : 1 h 44 min
  35. Bit rate mode                            : Variable
  36. Bit rate                                 : 310 kb/s
  37. Channel(s)                               : 2 channels
  38. Channel layout                           : L R
  39. Sampling rate                            : 48.0 kHz
  40. Frame rate                               : 11.719 FPS (4096 SPF)
  41. Bit depth                                : 16 bits
  42. Compression mode                         : Lossless
  43. Stream size                              : 233 MiB (5%)
  44. Writing library                          : libFLAC 1.3.3 (UTC 2019-08-04)
  45. Language                                 : English
  46. Default                                  : Yes
  47. Forced                                   : No

  48. Text
  49. ID                                       : 3
  50. Format                                   : PGS
  51. Muxing mode                              : zlib
  52. Codec ID                                 : S_HDMV/PGS
  53. Codec ID/Info                            : Picture based subtitle format used on BDs/HD-DVDs
  54. Duration                                 : 1 h 44 min
  55. Bit rate                                 : 42.1 kb/s
  56. Count of elements                        : 3770
  57. Stream size                              : 31.5 MiB (1%)
  58. Title                                    : SDH
  59. Language                                 : English
  60. Default                                  : No
  61. Forced                                   : No

  62. Menu
  63. 00:00:00.000                             : Chapter 01
  64. 00:00:09.718                             : Chapter 02
  65. 00:02:34.988                             : Chapter 03
  66. 00:06:24.551                             : Chapter 04
  67. 00:12:52.605                             : Chapter 05
  68. 00:18:27.648                             : Chapter 06
  69. 00:23:52.473                             : Chapter 07
  70. 00:27:02.079                             : Chapter 08
  71. 00:29:59.965                             : Chapter 09
  72. 00:33:49.152                             : Chapter 10
  73. 00:36:11.211                             : Chapter 11
  74. 00:40:18.207                             : Chapter 12
  75. 00:44:59.030                             : Chapter 13
  76. 00:48:57.434                             : Chapter 14
  77. 00:53:29.665                             : Chapter 15
  78. 00:56:44.484                             : Chapter 16
  79. 01:01:50.373                             : Chapter 17
  80. 01:05:36.266                             : Chapter 18
  81. 01:09:22.450                             : Chapter 19
  82. 01:11:46.928                             : Chapter 20
  83. 01:14:39.642                             : Chapter 21
  84. 01:18:08.893                             : Chapter 22
  85. 01:22:56.346                             : Chapter 23
  86. 01:26:34.773                             : Chapter 24
  87. 01:31:57.554                             : Chapter 25
  88. 01:35:56.960                             : Chapter 26
  89. 01:39:43.978                             : Chapter 27
  90. 01:41:35.214                             : Chapter 28
  91. 01:44:45.362                             : Chapter 29
  92. 01:44:56.290                             : Chapter 30
复制代码





                                       
                                       

                                       
                                       
                                       




回复

使用道具 举报

懒得打字嘛,点击右侧快捷回复 【右侧内容,后台自定义】
您需要登录后才可以回帖 登录 | 立即加入

本版积分规则

Archiver|小黑屋| 蓝光电影网 |网站地图

Copyright © 2021 Comsenz Inc. Powered by 蓝光电影网

蓝光电影网

本站内容由用户自主分享和转载自互联网,转载目的在于传递更多信息,并不代表本网赞同其观点和对其真实性负责。

如有侵权、违反国家法律政策行为,请联系我们,我们会第一时间及时清除和处理!

举报反馈邮箱:[email protected]

快速回复 返回顶部 返回列表