找回密码

蓝光电影网

查看: 422|回复: 0

[剧情] 路易斯·韦恩的激情人生 The.Electrical.Life.of.Louis.Wain.2021.1080p.BluRay.REMUX.AVC.DTS-HD.MA.5.1-FGT 29.11GB

[复制链接]
蓝光币
815
发表于 2022-1-23 08:34:32 | 显示全部楼层 |阅读模式


◎译  名 路易斯·韦恩的豪情人生 / 天赋猫奴画家(台) / 路易斯韦恩的迷幻猫天下(港) / 路易斯·韦恩 / 路易斯·韦恩的电气生活 / Louis Wain / The Nine Lives Of Louis Wain
◎片  名 The Electrical Life of Louis Wain
◎年  代 2021
◎产  地 英国
◎类  别 剧情 / 列传 / 历史
◎语  言 英语
◎上映日期 2021-09-02(特柳赖德电影节) / 2021-10-22(美国) / 2021-11-05(美国收集)
◎IMDb链接 https://www.imdb.com/title/tt10687506/
◎豆瓣评分 7.6/10 (3599人评价)
◎豆瓣链接 https://movie.douban.com/subject/34663377/
◎片  长 111分钟
◎导  演 福田知盛 Will Sharpe (id:1317339)
◎编  剧 西蒙·斯蒂芬森 Simon Stephenson (id:1458701)
       福田知盛 Will Sharpe (id:1317339)
◎演  员 本尼迪克特·康伯巴奇 Benedict Cumberbatch (id:1009405)
       克莱尔·芙伊 Claire Foy (id:1274511)
       安德丽娅·赖斯伯勒 Andrea Riseborough (id:1040815)
       托比·琼斯 Toby Jones (id:1107884)
       奥利维娅·科尔曼 Olivia Colman (id:1004900)
       莎朗·鲁妮 Sharon Rooney (id:1331294)
       海莉·斯奎尔斯 Hayley Squires (id:1357690)
       斯塔西·马汀 Stacy Martin (id:1334729)
       艾米·卢·伍德 Aimee Lou Wood (id:1408157)
       菲比·尼克尔斯 Phoebe Nicholls (id:1328486)
       阿迪勒·阿赫塔尔 Adeel Akhtar (id:1352050)
       阿西姆·乔杜里 Asim Chaudhry (id:1407787)
       朱利安·巴拉特 Julian Barratt (id:1045126)
       理查德·艾欧阿德 Richard Ayoade (id:1274320)
       塔伊加·维迪提 Taika Waititi (id:1076354)
       尼克·凯夫 Nick Cave (id:1049985)
       詹米·德米特鲁 Jamie Demetriou (id:1373219)
       希沃恩·麦克斯维尼 Siobhan McSweeney (id:1388810)
       詹姆斯·伊莱斯 James Eeles (id:1376659)
       多萝西·阿特金森 Dorothy Atkinson (id:1342774)
       克里斯塔·克拉克 Crystal Clarke (id:1341238)
       索菲娅·迪·马蒂诺 Sophia Di Martino (id:1202935)
       安雅·麦肯纳-布鲁斯 Anya McKenna-Bruce (id:1415424)
       印迪卡·沃森 Indica Watson (id:1396498)
       马汀·麦格 Martyn Mayger (id:1368245)
       卡罗尔·斯蒂尔 Karol Steele (id:1228170)
       琪琪·梅 Kiki May (id:1462036)
       奥利维尔·里希特斯 Olivier Richters (id:1421821)
       丹尼尔·里格比 Daniel Rigby (id:1314877)
       斯图尔特·斯卡德莫尔 Stewart Scudamore (id:1313127)
       玛吉·巴基尔 Maggie Bakir (id:1454332)
       Oliver Crocker Oliver Crocker (id:1007625)
       本尼迪克特·康伯巴奇 Benedict Cumberbatch (id:1009405)
       西蒙·斯蒂芬森 Simon Stephenson (id:1458701)
       阿瑟·夏普 Arthur Sharpe (id:1463872)
       迈克尔·奥康纳 Michael O'Connor (id:1135533)
◎简  介

  本尼迪克特·康伯巴奇和克莱尔·芙伊将主演新片《路易斯·韦恩》,聚焦英国插图画家路易斯·韦恩,8月10日开拍,福田知盛(《那些花儿》)执导。                                    
                                韦恩以画猫而著名,曾担任英国猫协主席,他为快要一百多本儿童书籍画过插画,其画经常夸张地模仿人类的行为,嘲讽时代风潮。他晚年能够得了精神割裂症,某些心理学家以为可以从其作品看出眉目,不外也有一些专家对这一说法提出了异议。
  1. Video
  2. ID                                       : 1
  3. ID in the original source medium         : 4113 (0x1011)
  4. Format                                   : AVC
  5. Format/Info                              : Advanced Video Codec
  6. Format profile                           : [email protected]
  7. Format settings                          : CABAC / 4 Ref Frames
  8. Format settings, CABAC                   : Yes
  9. Format settings, Reference frames        : 4 frames
  10. Format settings, GOP                     : M=3, N=12
  11. Codec ID                                 : V_MPEG4/ISO/AVC
  12. Duration                                 : 1 h 51 min
  13. Bit rate mode                            : Variable
  14. Bit rate                                 : 33.8 Mb/s
  15. Maximum bit rate                         : 35.0 Mb/s
  16. Width                                    : 1 920 pixels
  17. Height                                   : 1 080 pixels
  18. Display aspect ratio                     : 16:9
  19. Frame rate mode                          : Constant
  20. Frame rate                               : 24.000 FPS
  21. Color space                              : YUV
  22. Chroma subsampling                       : 4:2:0
  23. Bit depth                                : 8 bits
  24. Scan type                                : Progressive
  25. Bits/(Pixel*Frame)                       : 0.679
  26. Stream size                              : 26.3 GiB (90%)
  27. Language                                 : English
  28. Default                                  : No
  29. Forced                                   : No
  30. Original source medium                   : Blu-ray
  31. Audio
  32. ID                                       : 2
  33. ID in the original source medium         : 4353 (0x1101)
  34. Format                                   : DTS XLL
  35. Format/Info                              : Digital Theater Systems
  36. Commercial name                          : DTS-HD Master Audio
  37. Codec ID                                 : A_DTS
  38. Duration                                 : 1 h 51 min
  39. Bit rate mode                            : Variable
  40. Bit rate                                 : 3 626 kb/s
  41. Channel(s)                               : 6 channels
  42. Channel layout                           : C L R Ls Rs LFE
  43. Sampling rate                            : 48.0 kHz
  44. Frame rate                               : 93.750 FPS (512 SPF)
  45. Bit depth                                : 24 bits
  46. Compression mode                         : Lossless
  47. Stream size                              : 2.82 GiB (10%)
  48. Title                                    : DTS-HD MA 5.1
  49. Language                                 : English
  50. Default                                  : Yes
  51. Forced                                   : No
  52. Original source medium                   : Blu-ray
  53. Text #1
  54. ID                                       : 3
  55. Format                                   : UTF-8
  56. Codec ID                                 : S_TEXT/UTF8
  57. Codec ID/Info                            : UTF-8 Plain Text
  58. Duration                                 : 1 h 43 min
  59. Bit rate                                 : 63 b/s
  60. Count of elements                        : 1454
  61. Stream size                              : 48.2 KiB (0%)
  62. Language                                 : English
  63. Default                                  : Yes
  64. Forced                                   : No
  65. Text #2
  66. ID                                       : 4
  67. Format                                   : UTF-8
  68. Codec ID                                 : S_TEXT/UTF8
  69. Codec ID/Info                            : UTF-8 Plain Text
  70. Duration                                 : 1 h 43 min
  71. Bit rate                                 : 68 b/s
  72. Count of elements                        : 1544
  73. Stream size                              : 51.4 KiB (0%)
  74. Title                                    : SDH
  75. Language                                 : English
  76. Default                                  : No
  77. Forced                                   : No
  78. Menu
  79. 00:00:00.000                             : en:Chapter 01
  80. 00:00:57.791                             : en:Chapter 02
  81. 00:15:53.708                             : en:Chapter 03
  82. 00:26:50.500                             : en:Chapter 04
  83. 00:38:09.666                             : en:Chapter 05
  84. 00:46:18.958                             : en:Chapter 06
  85. 00:59:34.250                             : en:Chapter 07
  86. 01:08:02.250                             : en:Chapter 08
  87. 01:13:58.750                             : en:Chapter 09
  88. 01:19:25.625                             : en:Chapter 10
  89. 01:27:02.041                             : en:Chapter 11
  90. 01:33:59.166                             : en:Chapter 12
  91. 01:44:37.875                             : en:Chapter 13
复制代码







                                       
                                       

                                       
                                       
                                       




回复

使用道具 举报

懒得打字嘛,点击右侧快捷回复 【右侧内容,后台自定义】
您需要登录后才可以回帖 登录 | 立即加入

本版积分规则

Archiver|小黑屋| 蓝光电影网 |网站地图

Copyright © 2021 Comsenz Inc. Powered by 蓝光电影网

蓝光电影网

本站内容由用户自主分享和转载自互联网,转载目的在于传递更多信息,并不代表本网赞同其观点和对其真实性负责。

如有侵权、违反国家法律政策行为,请联系我们,我们会第一时间及时清除和处理!

举报反馈邮箱:[email protected]

快速回复 返回顶部 返回列表