找回密码

蓝光电影网

查看: 230|回复: 0

[爱情] 麦肯纳的黄金 Mackennas.Gold.1969.1080p.BluRay.x264-GETiT 11.51GB

[复制链接]
蓝光币
815
发表于 2022-1-29 15:19:16 | 显示全部楼层 |阅读模式


◎译  名 麦肯纳的黄金 / 神龙猛虎闯金关(港)
◎片  名 Mackenna's Gold
◎年  代 1969
◎产  地 美国
◎类  别 恋爱 / 西部
◎语  言 英语
◎上映日期 1969-03-18
◎IMDb链接 https://www.imdb.com/title/tt0064615/
◎豆瓣评分 6.7/10 (88人评价)
◎豆瓣链接 https://movie.douban.com/subject/1298904/
◎片  长 128分钟
◎导  演 J·李·汤普森 J. Lee Thompson (id:1025379)
◎编  剧 卡尔·福尔曼 Carl Foreman (id:1023370)
       赫克·艾伦 Heck Allen (id:1029559)
◎演  员 Rudy Diaz Rudy Diaz (id:1082594)
       大卫·加菲尔德 David Garfield (id:1096049)
       爱德华多·钱内利 Eduardo Ciannelli (id:1077809)
       Duke Hobbie Duke Hobbie (id:1096552)
       Madeleine Taylor Holmes Madeleine Taylor Holmes (id:1100650)
       维克托·乔里 Victor Jory (id:1107018)
       罗伯特·菲利普斯 Robert Phillips (id:1133733)
       Dick Peabody Dick Peabody (id:1134685)
       奥马尔·沙里夫 Omar Sharif (id:1002711)
       Pepe Callahan Pepe Callahan (id:1074189)
       特利·萨瓦拉斯 Telly Savalas (id:1007045)
       泰德·卡西迪 Ted Cassidy (id:1025288)
       朱莉·纽玛 Julie Newmar (id:1022753)
       格利高里·派克 Gregory Peck (id:1031218)
       埃里·瓦拉赫 Eli Wallach (id:1036385)
       李·科布 Lee J. Cobb (id:1036551)
       爱德华·罗宾逊 Edward G. Robinson (id:1036586)
       雪莉·莫里森 Shelley Morrison (id:1040785)
       布吉斯·梅迪斯 Burgess Meredith (id:1041173)
       卡蜜拉·斯帕芙 Camilla Sparv (id:1018397)
       雷蒙德·马西 Raymond Massey (id:1050015)
       安东尼·奎尔 Anthony Quayle (id:1050097)
       特雷弗·巴德特 Trevor Bardette (id:1062871)
       基南·怀恩 Keenan Wynn (id:1025281)
       迪米特里·迪奥姆金 Dimitri Tiomkin (id:1048339)
       卡尔·福尔曼 Carl Foreman (id:1023370)
       昆西·琼斯 Quincy Jones (id:1032094)
       约瑟夫·麦克唐纳德 Joseph MacDonald (id:1037820)
       Bill Lenny Bill Lenny (id:1289787)
       Alfred E. Spencer Alfred E. Spencer (id:1154970)
       卡里·奥戴尔 Cary Odell (id:1038461)
       杰弗里·德雷克 Geoffrey Drake (id:1282698)
       诺尔玛·科奇 Norma Koch (id:1000434)
       杰弗里·德雷克 Geoffrey Drake (id:1282698)
       劳伦斯·W·巴特勒 Lawrence W. Butler (id:1068765)
◎简  介

  麦肯纳是一位美国的警长,受托保管一张传奇的黄金谷舆图。忽然间,他和那张舆图成为当地一帮伏莽和镇民的首要方针;而为了贪心及对于配合的仇敌阿帕奇族,伏莽和镇民居然连系成一气。最初,那些为黄金沉迷的男男女女别离获得了分歧的了局……
  1. Video
  2. ID                                       : 1
  3. Format                                   : AVC
  4. Format/Info                              : Advanced Video Codec
  5. Format profile                           : [email protected]
  6. Format settings                          : CABAC / 5 Ref Frames
  7. Format settings, CABAC                   : Yes
  8. Format settings, Reference frames        : 5 frames
  9. Codec ID                                 : V_MPEG4/ISO/AVC
  10. Duration                                 : 2 h 8 min
  11. Bit rate                                 : 12.6 Mb/s
  12. Width                                    : 1 920 pixels
  13. Height                                   : 816 pixels
  14. Display aspect ratio                     : 2.35:1
  15. Frame rate mode                          : Constant
  16. Frame rate                               : 23.976 (24000/1001/189150) FPS
  17. Color space                              : YUV
  18. Chroma subsampling                       : 4:2:0
  19. Bit depth                                : 8 bits
  20. Scan type                                : Progressive
  21. Bits/(Pixel*Frame)                       : 0.336
  22. Stream size                              : 11.3 GiB (98%)
  23. Writing library                          : x264 core 164 r3085 0bb85e8
  24. Encoding settings                        : cabac=1 / ref=5 / deblock=1:-3:-3 / analyse=0x3:0x133 / me=umh / subme=9 / psy=1 / psy_rd=1.00:0.00 / mixed_ref=1 / me_range=16 / chroma_me=1 / trellis=2 / 8x8dct=1 / cqm=0 / deadzone=21,11 / fast_pskip=0 / chroma_qp_offset=-2 / threads=24 / lookahead_threads=2 / sliced_threads=0 / nr=0 / decimate=1 / interlaced=0 / bluray_compat=0 / constrained_intra=0 / bframes=3 / b_pyramid=2 / b_adapt=2 / b_bias=0 / direct=3 / weightb=1 / open_gop=0 / weightp=2 / keyint=250 / keyint_min=23 / scenecut=40 / intra_refresh=0 / rc_lookahead=60 / rc=crf / mbtree=1 / crf=17.0 / qcomp=0.60 / qpmin=0 / qpmax=69 / qpstep=4 / ip_ratio=1.40 / aq=3:0.60
  25. Default                                  : Yes
  26. Forced                                   : No
  27. Color range                              : Limited
  28. Matrix coefficients                      : BT.709

  29. Audio
  30. ID                                       : 2
  31. Format                                   : AC-3
  32. Format/Info                              : Audio Coding 3
  33. Commercial name                          : Dolby Digital
  34. Codec ID                                 : A_AC3
  35. Duration                                 : 2 h 8 min
  36. Bit rate mode                            : Constant
  37. Bit rate                                 : 224 kb/s
  38. Channel(s)                               : 2 channels
  39. Channel layout                           : L R
  40. Sampling rate                            : 48.0 kHz
  41. Frame rate                               : 31.250 FPS (1536 SPF)
  42. Compression mode                         : Lossy
  43. Stream size                              : 205 MiB (2%)
  44. Language                                 : English
  45. Service kind                             : Complete Main
  46. Default                                  : Yes
  47. Forced                                   : No

  48. Menu
  49. 00:00:00.000                             : en:00:00:00.000
  50. 00:15:25.258                             : en:00:15:25.258
  51. 00:36:55.171                             : en:00:36:55.171
  52. 00:51:04.520                             : en:00:51:04.520
  53. 01:05:45.441                             : en:01:05:45.441
  54. 01:23:40.474                             : en:01:23:40.474
  55. 01:45:07.676                             : en:01:45:07.676
  56. 02:06:57.485                             : en:02:06:57.485
复制代码





                                       
                                       

                                       
                                       
                                       




回复

使用道具 举报

懒得打字嘛,点击右侧快捷回复 【右侧内容,后台自定义】
您需要登录后才可以回帖 登录 | 立即加入

本版积分规则

Archiver|小黑屋| 蓝光电影网 |网站地图

Copyright © 2021 Comsenz Inc. Powered by 蓝光电影网

蓝光电影网

本站内容由用户自主分享和转载自互联网,转载目的在于传递更多信息,并不代表本网赞同其观点和对其真实性负责。

如有侵权、违反国家法律政策行为,请联系我们,我们会第一时间及时清除和处理!

举报反馈邮箱:[email protected]

快速回复 返回顶部 返回列表