找回密码

蓝光电影网

查看: 98|回复: 0

[惊悚] 邪恶入侵 Evil.at.the.Door.2022.1080p.WEBRip.AAC2.0.x264-NOGRP 5.95GB

[复制链接]
蓝光币
815
发表于 2022-1-29 17:50:20 | 显示全部楼层 |阅读模式


◎译  名 邪恶入侵
◎片  名 Evil at the Door
◎年  代 2021
◎产  地 美国
◎类  别 惊悚 / 可骇
◎语  言 英语
◎IMDb链接 https://www.imdb.com/title/tt12907932/
◎豆瓣链接 https://movie.douban.com/subject/35708502/
◎导  演 Kipp Tribble Kipp Tribble (id:1159901)
◎编  剧 Kipp Tribble Kipp Tribble (id:1159901)
◎演  员 Robert Allen Mukes Robert Allen Mukes (id:1132099)
◎简  介

  One night every year the world sees an alarming surge in violent home invasions. This is no coincidence.
  1. Video
  2. ID                                       : 1
  3. Format                                   : AVC
  4. Format/Info                              : Advanced Video Codec
  5. Format profile                           : [email protected]
  6. Format settings                          : CABAC / 4 Ref Frames
  7. Format settings, CABAC                   : Yes
  8. Format settings, Reference frames        : 4 frames
  9. Codec ID                                 : V_MPEG4/ISO/AVC
  10. Duration                                 : 1 h 21 min
  11. Bit rate                                 : 10.3 Mb/s
  12. Width                                    : 1 912 pixels
  13. Height                                   : 1 072 pixels
  14. Display aspect ratio                     : 16:9
  15. Frame rate mode                          : Constant
  16. Frame rate                               : 23.976 (24000/1001/189150) FPS
  17. Color space                              : YUV
  18. Chroma subsampling                       : 4:2:0
  19. Bit depth                                : 8 bits
  20. Scan type                                : Progressive
  21. Bits/(Pixel*Frame)                       : 0.210
  22. Stream size                              : 5.88 GiB (99%)
  23. Default                                  : Yes
  24. Forced                                   : No
  25. Color range                              : Limited
  26. Color primaries                          : BT.709
  27. Transfer characteristics                 : BT.709
  28. Matrix coefficients                      : BT.709
  29. Audio
  30. ID                                       : 2
  31. Format                                   : AAC LC
  32. Format/Info                              : Advanced Audio Codec Low Complexity
  33. Codec ID                                 : A_AAC-2
  34. Duration                                 : 1 h 21 min
  35. Bit rate                                 : 123 kb/s
  36. Channel(s)                               : 2 channels
  37. Channel layout                           : L R
  38. Sampling rate                            : 48.0 kHz
  39. Frame rate                               : 46.875 FPS (1024 SPF)
  40. Compression mode                         : Lossy
  41. Stream size                              : 72.2 MiB (1%)
  42. Language                                 : English
  43. Default                                  : Yes
  44. Forced                                   : No
复制代码




                                       
                                       

                                       
                                       
                                       




回复

使用道具 举报

懒得打字嘛,点击右侧快捷回复 【右侧内容,后台自定义】
您需要登录后才可以回帖 登录 | 立即加入

本版积分规则

Archiver|小黑屋| 蓝光电影网 |网站地图

Copyright © 2021 Comsenz Inc. Powered by 蓝光电影网

蓝光电影网

本站内容由用户自主分享和转载自互联网,转载目的在于传递更多信息,并不代表本网赞同其观点和对其真实性负责。

如有侵权、违反国家法律政策行为,请联系我们,我们会第一时间及时清除和处理!

举报反馈邮箱:[email protected]

快速回复 返回顶部 返回列表