找回密码

查看: 1552|回复: 0

[喜剧] 机器宝贝超级妞 Making.Mr.Right.1987.1080p.BluRay.x264.DTS-FGT 8.96GB

[复制链接]
蓝光币
1840
发表于 2022-3-23 19:41:50 | 显示全部楼层 |阅读模式


◎译  名 机械宝贝超级妞
◎片  名 Making Mr. Right
◎年  代 1987
◎产  地 美国
◎类  别 笑剧 / 恋爱 / 科幻
◎语  言 英语
◎上映日期 1987-04-03
◎IMDb链接 https://www.imdb.com/title/tt0093477/
◎豆瓣链接 https://movie.douban.com/subject/1305448/
◎片  长 98 分钟
◎导  演 苏珊·塞德尔曼 Susan Seidelman (id:1037067)
◎编  剧 弗洛伊德·拜尔斯 Floyd Byars (id:1279769)
◎演  员 约翰·马尔科维奇 John Malkovich (id:1041013)
       安·麦格纽森 Ann Magnuson (id:1056081)
       格伦妮·海德利 Glenne Headly (id:1031988)
       波莉·伯根 Polly Bergen (id:1010722)
       Lillian Zuckerman Lillian Zuckerman (id:1164306)
       苏姗·安东 Susan Anton (id:1027420)
       哈特·巴克纳 Hart Bochner (id:1027352)
       Robert Trebor Robert Trebor (id:1018428)
       波利·德雷珀 Polly Draper (id:1018226)
       希德·雷蒙德 Sid Raymond (id:1137849)
       詹姆斯·墨塔夫 James Murtaugh (id:1135568)
       本·马斯特斯 Ben Masters (id:1123177)
       劳里·梅特卡夫 Laurie Metcalf (id:1121650)
       Michael J. Hanly II Michael J. Hanly II (id:1092115)
       Merwin Goldsmith Merwin Goldsmith (id:1091557)
       Bob Cruz Bob Cruz (id:1076785)
       克里斯蒂安·克莱门松 Christian Clemenson (id:1032130)
       Sidney Armus Sidney Armus (id:1056818)
       苏珊·塞德尔曼 Susan Seidelman (id:1037067)
       安德鲁·蒙德谢恩 Andrew Mondshein (id:1292335)
       Dan Enright Dan Enright (id:1053646)
       查兹·让克尔 Chaz Jankel (id:1001607)
       爱德华·拉奇曼 Edward Lachman (id:1002898)
       安德鲁·蒙德谢恩 Andrew Mondshein (id:1292335)
       里萨·布雷蒙·加西亚 Risa Bramon Garcia (id:1284503)
       比利·霍普金斯 Billy Hopkins (id:1054463)
       阿德尔·卢茨 Adelle Lutz (id:1041463)
       林戴尔·奎尤 Lyndell Quiyou (id:1295089)
       安德鲁·蒙德谢恩 Andrew Mondshein (id:1292335)
       布兰·费伦 Bran Ferren (id:1283632)
◎简  介

  A reclusive scientist builds a robot that looks exactly like him to go on a long-term space mission. Since the scientist seems to lack all emotions, he is unable to program them into his automaton, and an eccentric woman is hired to "educate" the robot on human behavior. In the end, she falls in love... but is the robot or the Dr. Mr. Right?
  1. Video
  2. ID                                       : 1
  3. Format                                   : AVC
  4. Format/Info                              : Advanced Video Codec
  5. Format profile                           : [email protected]
  6. Format settings                          : CABAC / 4 Ref Frames
  7. Format settings, CABAC                   : Yes
  8. Format settings, Reference frames        : 4 frames
  9. Codec ID                                 : V_MPEG4/ISO/AVC
  10. Duration                                 : 1 h 38 min
  11. Bit rate                                 : 11.5 Mb/s
  12. Width                                    : 1 920 pixels
  13. Height                                   : 1 040 pixels
  14. Display aspect ratio                     : 1.85:1
  15. Frame rate mode                          : Constant
  16. Frame rate                               : 23.976 (24000/1001/189150) FPS
  17. Color space                              : YUV
  18. Chroma subsampling                       : 4:2:0
  19. Bit depth                                : 8 bits
  20. Scan type                                : Progressive
  21. Bits/(Pixel*Frame)                       : 0.240
  22. Stream size                              : 7.92 GiB (88%)
  23. Writing library                          : x264 core 148 r2795M aaa9aa8
  24. Encoding settings                        : cabac=1 / ref=4 / deblock=1:-2:-2 / analyse=0x3:0x113 / me=umh / subme=9 / psy=1 / psy_rd=1.00:0.15 / mixed_ref=1 / me_range=16 / chroma_me=1 / trellis=2 / 8x8dct=1 / cqm=0 / deadzone=21,11 / fast_pskip=1 / chroma_qp_offset=-3 / threads=24 / lookahead_threads=3 / sliced_threads=0 / nr=0 / decimate=1 / interlaced=0 / bluray_compat=0 / constrained_intra=0 / bframes=3 / b_pyramid=2 / b_adapt=1 / b_bias=0 / direct=3 / weightb=1 / open_gop=0 / weightp=2 / keyint=250 / keyint_min=25 / scenecut=40 / intra_refresh=0 / rc_lookahead=50 / rc=2pass / mbtree=1 / bitrate=11500 / ratetol=1.0 / qcomp=0.60 / qpmin=0 / qpmax=69 / qpstep=4 / cplxblur=20.0 / qblur=0.5 / vbv_maxrate=31250 / vbv_bufsize=31250 / nal_hrd=none / filler=0 / ip_ratio=1.40 / aq=1:1.00
  25. Language                                 : English
  26. Default                                  : Yes
  27. Forced                                   : No
  28. Audio
  29. ID                                       : 2
  30. Format                                   : DTS
  31. Format/Info                              : Digital Theater Systems
  32. Codec ID                                 : A_DTS
  33. Duration                                 : 1 h 38 min
  34. Bit rate mode                            : Constant
  35. Bit rate                                 : 1 509 kb/s
  36. Channel(s)                               : 2 channels
  37. Channel layout                           : L R
  38. Sampling rate                            : 48.0 kHz
  39. Frame rate                               : 93.750 FPS (512 SPF)
  40. Bit depth                                : 24 bits
  41. Compression mode                         : Lossy
  42. Stream size                              : 1.04 GiB (12%)
  43. Language                                 : English
  44. Default                                  : Yes
  45. Forced                                   : No
  46. Text
  47. ID                                       : 3
  48. Format                                   : UTF-8
  49. Codec ID                                 : S_TEXT/UTF8
  50. Codec ID/Info                            : UTF-8 Plain Text
  51. Duration                                 : 1 h 37 min
  52. Bit rate                                 : 63 b/s
  53. Count of elements                        : 1825
  54. Stream size                              : 45.8 KiB (0%)
  55. Language                                 : English
  56. Default                                  : Yes
  57. Forced                                   : No
复制代码





                                       
                                       

                                       
                                       
                                       




回复

使用道具 举报

懒得打字嘛,点击右侧快捷回复 【右侧内容,后台自定义】
您需要登录后才可以回帖 登录 | 立即加入

本版积分规则

Copyright © 2024 Comsenz Inc. Powered by 蓝光电影网

本站内容由用户自主分享和转载自互联网,转载目的在于传递更多信息,并不代表本网赞同其观点和对其真实性负责。

如有侵权、违反国家法律政策行为,请联系我们,我们会第一时间及时清除和处理!

举报反馈邮箱:4k1080.com@gmail.com

快速回复 返回顶部 返回列表