找回密码

查看: 2340|回复: 0

[喜剧] 巨蟒与圣杯 Monty.Python.and.the.Holy.Grail.1975.1080p.BluRay.REMUX.AVC.DTS-HD.MA.5.1-FGT 20.16GB

[复制链接]
蓝光币
2048
发表于 2022-5-4 11:47:45 | 显示全部楼层 |阅读模式


◎译  名 巨蟒与圣杯 / 圣杯传奇(台) / 巨蟒和圣杯 / 蒙蒂·派松和圣杯
◎片  名 Monty Python and the Holy Grail
◎年  代 1975
◎产  地 英国
◎类  别 笑剧 / 奇异 / 冒险
◎语  言 英语 / 法语 / 拉丁语
◎上映日期 1975-04-25(英国)
◎IMDb链接 https://www.imdb.com/title/tt0071853/
◎豆瓣评分 7.9/10 (18872人评价)
◎豆瓣链接 https://movie.douban.com/subject/1294917/
◎片  长 91分钟
◎导  演 特瑞·吉列姆 Terry Gilliam (id:1047980)
       特瑞·琼斯 Terry Jones (id:1007073)
◎编  剧 格雷厄姆·查普曼 Graham Chapman (id:1014007)
       约翰·克里斯 John Cleese (id:1041137)
       艾瑞克·爱都 Eric Idle (id:1002750)
       特瑞·吉列姆 Terry Gilliam (id:1047980)
       特瑞·琼斯 Terry Jones (id:1007073)
       迈克尔·帕林 Michael Palin (id:1048209)
◎演  员 格雷厄姆·查普曼 Graham Chapman (id:1014007)
       约翰·克里斯 John Cleese (id:1041137)
       艾瑞克·爱都 Eric Idle (id:1002750)
       特瑞·吉列姆 Terry Gilliam (id:1047980)
       特瑞·琼斯 Terry Jones (id:1007073)
       迈克尔·帕林 Michael Palin (id:1048209)
       康妮·布斯 Connie Booth (id:1004912)
       卡萝尔·克力夫兰 Carol Cleveland (id:1078575)
       尼尔·尹艾斯 Neil Innes (id:1037157)
       比·达夫尔 Bee Duffell (id:1089304)
       John Young John Young (id:1168189)
       莎莉·金霍恩 Sally Kinghorn (id:1383093)
       桑迪·约翰逊 Sandy Johnson (id:1287808)
       Joni Flynn Joni Flynn (id:1079826)
       伊恩·班克斯 Iain Banks (id:1065532)
       玛格丽塔·道尔 Margarita Doyle (id:1282685)
       查尔斯·诺德 Charles Knode (id:1288770)
       Roy Forge Smith Roy Forge Smith (id:1297928)
       玛吉·韦斯顿 Maggie Weston (id:1306971)
       巨蟒 Monty Python (id:1393502)
◎简  介

  带着敲椰子壳的家丁,亚瑟王(格雷厄姆·查普曼 Graham Chapman 饰)伪装骑着马寻觅骑士和城堡,一路看尽生灵涂炭的气象,和各类鸡同鸭讲的公众交换,最初招揽到一群圆桌骑士。他们一路伪装骑着马,到了卡米洛特城堡,在城堡外,他们碰见天上显现的天主,要求他们去寻觅圣杯。他们试图用“木獾记”攻下一座法国人的城堡,可是却忘记存身在木獾里,终极被法国人打得屁滚尿流。履历失利的亚瑟王与骑士们起头分头行动,寻觅圣杯的使命意义严重,更多不靠谱的人和事一路期待这群不靠谱的骑士们……                                    
                                本片是唯逐一部进入IMDB前50排名的“无厘头”电影。片中“巨蟒团”六名焦点成员每人出演了4-10个脚色,包揽片中大部分脚色。
  1. Video
  2. ID                                       : 1
  3. ID in the original source medium         : 4113 (0x1011)
  4. Format                                   : AVC
  5. Format/Info                              : Advanced Video Codec
  6. Format profile                           : [email protected]
  7. Format settings                          : CABAC / 2 Ref Frames
  8. Format settings, CABAC                   : Yes
  9. Format settings, Reference frames        : 2 frames
  10. Codec ID                                 : V_MPEG4/ISO/AVC
  11. Duration                                 : 1 h 32 min
  12. Bit rate mode                            : Variable
  13. Bit rate                                 : 25.0 Mb/s
  14. Width                                    : 1 920 pixels
  15. Height                                   : 1 080 pixels
  16. Display aspect ratio                     : 16:9
  17. Frame rate mode                          : Constant
  18. Frame rate                               : 23.976 (24000/1001/189150) FPS
  19. Color space                              : YUV
  20. Chroma subsampling                       : 4:2:0
  21. Bit depth                                : 8 bits
  22. Scan type                                : Progressive
  23. Bits/(Pixel*Frame)                       : 0.502
  24. Stream size                              : 16.1 GiB (80%)
  25. Language                                 : English
  26. Default                                  : No
  27. Forced                                   : No
  28. Original source medium                   : Blu-ray
  29. Audio #1
  30. ID                                       : 2
  31. ID in the original source medium         : 4352 (0x1100)
  32. Format                                   : DTS XLL
  33. Format/Info                              : Digital Theater Systems
  34. Commercial name                          : DTS-HD Master Audio
  35. Codec ID                                 : A_DTS
  36. Duration                                 : 1 h 32 min
  37. Bit rate mode                            : Variable
  38. Bit rate                                 : 2 121 kb/s
  39. Channel(s)                               : 6 channels
  40. Channel layout                           : C L R Ls Rs LFE
  41. Sampling rate                            : 48.0 kHz
  42. Frame rate                               : 93.750 FPS (512 SPF)
  43. Bit depth                                : 16 bits
  44. Compression mode                         : Lossless
  45. Stream size                              : 1.36 GiB (7%)
  46. Title                                    : DTS-HD MA 5.1
  47. Language                                 : English
  48. Default                                  : Yes
  49. Forced                                   : No
  50. Original source medium                   : Blu-ray
  51. Audio #2
  52. ID                                       : 3
  53. ID in the original source medium         : 4353 (0x1101)
  54. Format                                   : DTS XLL
  55. Format/Info                              : Digital Theater Systems
  56. Commercial name                          : DTS-HD Master Audio
  57. Codec ID                                 : A_DTS
  58. Duration                                 : 1 h 32 min
  59. Bit rate mode                            : Variable
  60. Bit rate                                 : 1 713 kb/s
  61. Channel(s)                               : 2 channels
  62. Channel layout                           : L R
  63. Sampling rate                            : 48.0 kHz
  64. Frame rate                               : 93.750 FPS (512 SPF)
  65. Bit depth                                : 16 bits
  66. Compression mode                         : Lossless
  67. Stream size                              : 1.10 GiB (5%)
  68. Title                                    : DTS-HD MA 2.0
  69. Language                                 : English
  70. Default                                  : No
  71. Forced                                   : No
  72. Original source medium                   : Blu-ray
  73. Audio #3
  74. ID                                       : 4
  75. ID in the original source medium         : 4354 (0x1102)
  76. Format                                   : AC-3
  77. Format/Info                              : Audio Coding 3
  78. Commercial name                          : Dolby Digital
  79. Codec ID                                 : A_AC3
  80. Duration                                 : 1 h 32 min
  81. Bit rate mode                            : Constant
  82. Bit rate                                 : 640 kb/s
  83. Channel(s)                               : 6 channels
  84. Channel layout                           : L R C LFE Ls Rs
  85. Sampling rate                            : 48.0 kHz
  86. Frame rate                               : 31.250 FPS (1536 SPF)
  87. Compression mode                         : Lossy
  88. Stream size                              : 422 MiB (2%)
  89. Title                                    : DD 5.1
  90. Language                                 : French
  91. Service kind                             : Complete Main
  92. Default                                  : No
  93. Forced                                   : No
  94. Original source medium                   : Blu-ray
  95. Audio #4
  96. ID                                       : 5
  97. ID in the original source medium         : 4355 (0x1103)
  98. Format                                   : AC-3
  99. Format/Info                              : Audio Coding 3
  100. Commercial name                          : Dolby Digital
  101. Codec ID                                 : A_AC3
  102. Duration                                 : 1 h 32 min
  103. Bit rate mode                            : Constant
  104. Bit rate                                 : 640 kb/s
  105. Channel(s)                               : 6 channels
  106. Channel layout                           : L R C LFE Ls Rs
  107. Sampling rate                            : 48.0 kHz
  108. Frame rate                               : 31.250 FPS (1536 SPF)
  109. Compression mode                         : Lossy
  110. Stream size                              : 422 MiB (2%)
  111. Title                                    : DD 5.1
  112. Language                                 : Japanese
  113. Service kind                             : Complete Main
  114. Default                                  : No
  115. Forced                                   : No
  116. Original source medium                   : Blu-ray
  117. Audio #5
  118. ID                                       : 6
  119. ID in the original source medium         : 4356 (0x1104)
  120. Format                                   : AC-3
  121. Format/Info                              : Audio Coding 3
  122. Commercial name                          : Dolby Digital
  123. Codec ID                                 : A_AC3
  124. Duration                                 : 1 h 32 min
  125. Bit rate mode                            : Constant
  126. Bit rate                                 : 640 kb/s
  127. Channel(s)                               : 6 channels
  128. Channel layout                           : L R C LFE Ls Rs
  129. Sampling rate                            : 48.0 kHz
  130. Frame rate                               : 31.250 FPS (1536 SPF)
  131. Compression mode                         : Lossy
  132. Stream size                              : 422 MiB (2%)
  133. Title                                    : DD 5.1
  134. Language                                 : Portuguese
  135. Service kind                             : Complete Main
  136. Default                                  : No
  137. Forced                                   : No
  138. Original source medium                   : Blu-ray
  139. Audio #6
  140. ID                                       : 7
  141. ID in the original source medium         : 4357 (0x1105)
  142. Format                                   : AC-3
  143. Format/Info                              : Audio Coding 3
  144. Commercial name                          : Dolby Digital
  145. Codec ID                                 : A_AC3
  146. Duration                                 : 1 h 32 min
  147. Bit rate mode                            : Constant
  148. Bit rate                                 : 192 kb/s
  149. Channel(s)                               : 2 channels
  150. Channel layout                           : L R
  151. Sampling rate                            : 48.0 kHz
  152. Frame rate                               : 31.250 FPS (1536 SPF)
  153. Compression mode                         : Lossy
  154. Stream size                              : 127 MiB (1%)
  155. Title                                    : DD 2.0
  156. Language                                 : English
  157. Service kind                             : Complete Main
  158. Default                                  : No
  159. Forced                                   : No
  160. Original source medium                   : Blu-ray
  161. Audio #7
  162. ID                                       : 8
  163. ID in the original source medium         : 4358 (0x1106)
  164. Format                                   : AC-3
  165. Format/Info                              : Audio Coding 3
  166. Commercial name                          : Dolby Digital
  167. Codec ID                                 : A_AC3
  168. Duration                                 : 1 h 32 min
  169. Bit rate mode                            : Constant
  170. Bit rate                                 : 192 kb/s
  171. Channel(s)                               : 2 channels
  172. Channel layout                           : L R
  173. Sampling rate                            : 48.0 kHz
  174. Frame rate                               : 31.250 FPS (1536 SPF)
  175. Compression mode                         : Lossy
  176. Stream size                              : 127 MiB (1%)
  177. Title                                    : DD 2.0
  178. Language                                 : English
  179. Service kind                             : Complete Main
  180. Default                                  : No
  181. Forced                                   : No
  182. Original source medium                   : Blu-ray
  183. Text #1
  184. ID                                       : 9
  185. Format                                   : UTF-8
  186. Codec ID                                 : S_TEXT/UTF8
  187. Codec ID/Info                            : UTF-8 Plain Text
  188. Duration                                 : 1 h 24 min
  189. Bit rate                                 : 63 b/s
  190. Count of elements                        : 1012
  191. Stream size                              : 39.3 KiB (0%)
  192. Language                                 : English
  193. Default                                  : Yes
  194. Forced                                   : No
  195. Text #2
  196. ID                                       : 10
  197. ID in the original source medium         : 4608 (0x1200)
  198. Format                                   : PGS
  199. Muxing mode                              : zlib
  200. Codec ID                                 : S_HDMV/PGS
  201. Codec ID/Info                            : Picture based subtitle format used on BDs/HD-DVDs
  202. Duration                                 : 1 h 28 min
  203. Bit rate                                 : 36.1 kb/s
  204. Count of elements                        : 3012
  205. Stream size                              : 22.9 MiB (0%)
  206. Language                                 : English
  207. Default                                  : No
  208. Forced                                   : No
  209. Original source medium                   : Blu-ray
  210. Text #3
  211. ID                                       : 11
  212. ID in the original source medium         : 4609 (0x1201)
  213. Format                                   : PGS
  214. Muxing mode                              : zlib
  215. Codec ID                                 : S_HDMV/PGS
  216. Codec ID/Info                            : Picture based subtitle format used on BDs/HD-DVDs
  217. Duration                                 : 1 h 24 min
  218. Bit rate                                 : 39.4 kb/s
  219. Count of elements                        : 2036
  220. Stream size                              : 23.9 MiB (0%)
  221. Language                                 : English
  222. Default                                  : No
  223. Forced                                   : No
  224. Original source medium                   : Blu-ray
  225. Text #4
  226. ID                                       : 12
  227. ID in the original source medium         : 4610 (0x1202)
  228. Format                                   : PGS
  229. Muxing mode                              : zlib
  230. Codec ID                                 : S_HDMV/PGS
  231. Codec ID/Info                            : Picture based subtitle format used on BDs/HD-DVDs
  232. Duration                                 : 1 h 28 min
  233. Bit rate                                 : 31.8 kb/s
  234. Count of elements                        : 2118
  235. Stream size                              : 20.2 MiB (0%)
  236. Language                                 : Chinese
  237. Default                                  : No
  238. Forced                                   : No
  239. Original source medium                   : Blu-ray
  240. Text #5
  241. ID                                       : 13
  242. ID in the original source medium         : 4611 (0x1203)
  243. Format                                   : PGS
  244. Muxing mode                              : zlib
  245. Codec ID                                 : S_HDMV/PGS
  246. Codec ID/Info                            : Picture based subtitle format used on BDs/HD-DVDs
  247. Duration                                 : 1 h 28 min
  248. Bit rate                                 : 40.3 kb/s
  249. Count of elements                        : 2106
  250. Stream size                              : 25.6 MiB (0%)
  251. Language                                 : French
  252. Default                                  : No
  253. Forced                                   : No
  254. Original source medium                   : Blu-ray
  255. Text #6
  256. ID                                       : 14
  257. ID in the original source medium         : 4611 (0x1203)
  258. Format                                   : PGS
  259. Muxing mode                              : zlib
  260. Codec ID                                 : S_HDMV/PGS
  261. Codec ID/Info                            : Picture based subtitle format used on BDs/HD-DVDs
  262. Duration                                 : 1 h 21 min
  263. Bit rate                                 : 1 682 b/s
  264. Count of elements                        : 84
  265. Stream size                              : 1 002 KiB (0%)
  266. Language                                 : French
  267. Default                                  : No
  268. Forced                                   : No
  269. Original source medium                   : Blu-ray
  270. Text #7
  271. ID                                       : 15
  272. ID in the original source medium         : 4612 (0x1204)
  273. Format                                   : PGS
  274. Muxing mode                              : zlib
  275. Codec ID                                 : S_HDMV/PGS
  276. Codec ID/Info                            : Picture based subtitle format used on BDs/HD-DVDs
  277. Duration                                 : 1 h 28 min
  278. Bit rate                                 : 28.8 kb/s
  279. Count of elements                        : 2681
  280. Stream size                              : 18.3 MiB (0%)
  281. Language                                 : Japanese
  282. Default                                  : No
  283. Forced                                   : No
  284. Original source medium                   : Blu-ray
  285. Text #8
  286. ID                                       : 16
  287. ID in the original source medium         : 4613 (0x1205)
  288. Format                                   : PGS
  289. Muxing mode                              : zlib
  290. Codec ID                                 : S_HDMV/PGS
  291. Codec ID/Info                            : Picture based subtitle format used on BDs/HD-DVDs
  292. Duration                                 : 1 h 29 min
  293. Bit rate                                 : 25.9 kb/s
  294. Count of elements                        : 2110
  295. Stream size                              : 16.5 MiB (0%)
  296. Language                                 : Korean
  297. Default                                  : No
  298. Forced                                   : No
  299. Original source medium                   : Blu-ray
  300. Text #9
  301. ID                                       : 17
  302. ID in the original source medium         : 4614 (0x1206)
  303. Format                                   : PGS
  304. Muxing mode                              : zlib
  305. Codec ID                                 : S_HDMV/PGS
  306. Codec ID/Info                            : Picture based subtitle format used on BDs/HD-DVDs
  307. Duration                                 : 1 h 29 min
  308. Bit rate                                 : 38.1 kb/s
  309. Count of elements                        : 2110
  310. Stream size                              : 24.3 MiB (0%)
  311. Language                                 : Portuguese
  312. Default                                  : No
  313. Forced                                   : No
  314. Original source medium                   : Blu-ray
  315. Text #10
  316. ID                                       : 18
  317. ID in the original source medium         : 4615 (0x1207)
  318. Format                                   : PGS
  319. Muxing mode                              : zlib
  320. Codec ID                                 : S_HDMV/PGS
  321. Codec ID/Info                            : Picture based subtitle format used on BDs/HD-DVDs
  322. Duration                                 : 1 h 29 min
  323. Bit rate                                 : 39.8 kb/s
  324. Count of elements                        : 2195
  325. Stream size                              : 25.3 MiB (0%)
  326. Language                                 : Spanish
  327. Default                                  : No
  328. Forced                                   : No
  329. Original source medium                   : Blu-ray
  330. Text #11
  331. ID                                       : 19
  332. ID in the original source medium         : 4616 (0x1208)
  333. Format                                   : PGS
  334. Muxing mode                              : zlib
  335. Codec ID                                 : S_HDMV/PGS
  336. Codec ID/Info                            : Picture based subtitle format used on BDs/HD-DVDs
  337. Duration                                 : 1 h 28 min
  338. Bit rate                                 : 31.2 kb/s
  339. Count of elements                        : 2122
  340. Stream size                              : 19.8 MiB (0%)
  341. Language                                 : Thai
  342. Default                                  : No
  343. Forced                                   : No
  344. Original source medium                   : Blu-ray
  345. Text #12
  346. ID                                       : 20
  347. ID in the original source medium         : 4617 (0x1209)
  348. Format                                   : PGS
  349. Muxing mode                              : zlib
  350. Codec ID                                 : S_HDMV/PGS
  351. Codec ID/Info                            : Picture based subtitle format used on BDs/HD-DVDs
  352. Duration                                 : 1 h 31 min
  353. Bit rate                                 : 40.4 kb/s
  354. Count of elements                        : 2107
  355. Stream size                              : 26.4 MiB (0%)
  356. Language                                 : Japanese
  357. Default                                  : No
  358. Forced                                   : No
  359. Original source medium                   : Blu-ray
  360. Text #13
  361. ID                                       : 21
  362. ID in the original source medium         : 4618 (0x120A)
  363. Format                                   : PGS
  364. Muxing mode                              : zlib
  365. Codec ID                                 : S_HDMV/PGS
  366. Codec ID/Info                            : Picture based subtitle format used on BDs/HD-DVDs
  367. Duration                                 : 1 h 31 min
  368. Bit rate                                 : 63.0 kb/s
  369. Count of elements                        : 2862
  370. Stream size                              : 41.1 MiB (0%)
  371. Language                                 : Portuguese
  372. Default                                  : No
  373. Forced                                   : No
  374. Original source medium                   : Blu-ray
  375. Text #14
  376. ID                                       : 22
  377. ID in the original source medium         : 4619 (0x120B)
  378. Format                                   : PGS
  379. Muxing mode                              : zlib
  380. Codec ID                                 : S_HDMV/PGS
  381. Codec ID/Info                            : Picture based subtitle format used on BDs/HD-DVDs
  382. Duration                                 : 1 h 31 min
  383. Bit rate                                 : 41.4 kb/s
  384. Count of elements                        : 1757
  385. Stream size                              : 27.1 MiB (0%)
  386. Language                                 : Japanese
  387. Default                                  : No
  388. Forced                                   : No
  389. Original source medium                   : Blu-ray
  390. Text #15
  391. ID                                       : 23
  392. ID in the original source medium         : 4620 (0x120C)
  393. Format                                   : PGS
  394. Muxing mode                              : zlib
  395. Codec ID                                 : S_HDMV/PGS
  396. Codec ID/Info                            : Picture based subtitle format used on BDs/HD-DVDs
  397. Duration                                 : 1 h 31 min
  398. Bit rate                                 : 64.2 kb/s
  399. Count of elements                        : 2821
  400. Stream size                              : 42.1 MiB (0%)
  401. Language                                 : Portuguese
  402. Default                                  : No
  403. Forced                                   : No
  404. Original source medium                   : Blu-ray
  405. Text #16
  406. ID                                       : 24
  407. ID in the original source medium         : 4621 (0x120D)
  408. Format                                   : PGS
  409. Muxing mode                              : zlib
  410. Codec ID                                 : S_HDMV/PGS
  411. Codec ID/Info                            : Picture based subtitle format used on BDs/HD-DVDs
  412. Duration                                 : 1 h 29 min
  413. Bit rate                                 : 33.5 kb/s
  414. Count of elements                        : 2120
  415. Stream size                              : 21.3 MiB (0%)
  416. Language                                 : English
  417. Default                                  : No
  418. Forced                                   : No
  419. Original source medium                   : Blu-ray
  420. Text #17
  421. ID                                       : 25
  422. ID in the original source medium         : 4622 (0x120E)
  423. Format                                   : PGS
  424. Muxing mode                              : zlib
  425. Codec ID                                 : S_HDMV/PGS
  426. Codec ID/Info                            : Picture based subtitle format used on BDs/HD-DVDs
  427. Duration                                 : 1 h 28 min
  428. Bit rate                                 : 25.4 kb/s
  429. Count of elements                        : 2118
  430. Stream size                              : 16.2 MiB (0%)
  431. Language                                 : Chinese
  432. Default                                  : No
  433. Forced                                   : No
  434. Original source medium                   : Blu-ray
  435. Text #18
  436. ID                                       : 26
  437. ID in the original source medium         : 4623 (0x120F)
  438. Format                                   : PGS
  439. Muxing mode                              : zlib
  440. Codec ID                                 : S_HDMV/PGS
  441. Codec ID/Info                            : Picture based subtitle format used on BDs/HD-DVDs
  442. Duration                                 : 1 h 28 min
  443. Bit rate                                 : 28.1 kb/s
  444. Count of elements                        : 2500
  445. Stream size                              : 17.9 MiB (0%)
  446. Language                                 : Japanese
  447. Default                                  : No
  448. Forced                                   : No
  449. Original source medium                   : Blu-ray
  450. Text #19
  451. ID                                       : 27
  452. ID in the original source medium         : 4624 (0x1210)
  453. Format                                   : PGS
  454. Muxing mode                              : zlib
  455. Codec ID                                 : S_HDMV/PGS
  456. Codec ID/Info                            : Picture based subtitle format used on BDs/HD-DVDs
  457. Duration                                 : 1 h 28 min
  458. Bit rate                                 : 35.3 kb/s
  459. Count of elements                        : 2118
  460. Stream size                              : 22.5 MiB (0%)
  461. Language                                 : Portuguese
  462. Default                                  : No
  463. Forced                                   : No
  464. Original source medium                   : Blu-ray
  465. Text #20
  466. ID                                       : 28
  467. ID in the original source medium         : 4625 (0x1211)
  468. Format                                   : PGS
  469. Muxing mode                              : zlib
  470. Codec ID                                 : S_HDMV/PGS
  471. Codec ID/Info                            : Picture based subtitle format used on BDs/HD-DVDs
  472. Duration                                 : 1 h 21 min
  473. Bit rate                                 : 4 115 b/s
  474. Count of elements                        : 266
  475. Stream size                              : 2.39 MiB (0%)
  476. Language                                 : Japanese
  477. Default                                  : No
  478. Forced                                   : No
  479. Original source medium                   : Blu-ray
  480. Menu
  481. 00:00:00.000                             : en:Chapter 01
  482. 00:06:53.496                             : en:Chapter 02
  483. 00:11:59.844                             : en:Chapter 03
  484. 00:16:28.654                             : en:Chapter 04
  485. 00:20:17.966                             : en:Chapter 05
  486. 00:24:54.618                             : en:Chapter 06
  487. 00:29:11.166                             : en:Chapter 07
  488. 00:35:35.758                             : en:Chapter 08
  489. 00:43:05.124                             : en:Chapter 09
  490. 00:52:00.075                             : en:Chapter 10
  491. 01:00:33.171                             : en:Chapter 11
  492. 01:05:24.045                             : en:Chapter 12
  493. 01:12:02.860                             : en:Chapter 13
  494. 01:17:55.671                             : en:Chapter 14
  495. 01:21:56.244                             : en:Chapter 15
  496. 01:26:25.597                             : en:Chapter 16
复制代码




                                       
                                       

                                       
                                       
                                       




回复

使用道具 举报

懒得打字嘛,点击右侧快捷回复 【右侧内容,后台自定义】
您需要登录后才可以回帖 登录 | 立即加入

本版积分规则

Archiver| |网站地图

Copyright © 2024 Comsenz Inc. Powered by 蓝光电影网

本站内容由用户自主分享和转载自互联网,转载目的在于传递更多信息,并不代表本网赞同其观点和对其真实性负责。

如有侵权、违反国家法律政策行为,请联系我们,我们会第一时间及时清除和处理!

举报反馈邮箱:4k1080.com@gmail.com

快速回复 返回顶部 返回列表