找回密码

蓝光电影网

查看: 85|回复: 1

[10bit.HDR] 艳贼[HDR版本][简繁英字幕].Marnie.1964.BluRay.2160p.DTS-HD.MA.2.0.HDR.x265.10bit-CTRLHD 21.34GB

[复制链接]
蓝光币
3
发表于 4 天前 | 显示全部楼层 |阅读模式
艳贼[HDR版本][简繁英字幕].Marnie.1964.BluRay.2160p.DTS-HD.MA.2.0.HDR.x265.10bit-CTRLHD 21.34GB-1.jpeg

◎译  名 艳贼 / 玛尔尼 / 奥秘贼美人 / 玛尼
◎片  名 Marnie
◎年  代 1964
◎产  地 美国
◎类  别 剧情 / 恋爱 / 悬疑
◎语  言 英语
◎上映日期 1964-07-22(美国)
◎IMDb链接 https://www.imdb.com/title/tt0058329/
◎豆瓣评分 7.3/10 (18135人评价)
◎豆瓣链接 https://movie.douban.com/subject/1298442/
◎片  长 130 分钟
◎导  演 阿尔弗雷德·希区柯克 Alfred Hitchcock
◎编  剧 温斯顿·格雷汉姆 Winston Graham
       杰伊·普莱森·艾伦 Jay Presson Allen
◎演  员 蒂比·海德莉 Tippi Hedren
       马丁·加贝尔 Martin Gabel
       肖恩·康纳利 Sean Connery
       路易莎·兰瑟姆 Louise Latham
       黛安·贝克 Diane Baker
       阿兰·纳皮尔 Alan Napier
       鲍勃·斯威尼 Bob Sweeney
       米尔顿·塞勒泽 Milton Selzer
       亨利·贝克曼 Henry Beckman
       伊迪丝·埃文森 Edith Evanson
       玛丽特·哈莉 Mariette Hartley
       布鲁斯·邓恩 Bruce Dern
       S·约翰·劳纳 S. John Launer
       梅格·怀利 Meg Wyllie
       约翰·阿尔文 John Alvin
       金伯莉·贝克 Kimberly Beck
       莉莲·布朗森 Lillian Bronson
       乔治布鲁格曼 George Bruggeman
       鲁佩特·克罗斯 Rupert Crosse
       海尔德·高德 Harold Gould
       埃马利娜·亨利 Emmaline Henry
       阿尔弗雷德·希区柯克 Alfred Hitchcock
       肯纳G.肯普 Kenner G. Kemp
       卡门-菲利普斯 Carmen Phillips
       梅洛迪·托马斯·斯科特 Melody Thomas Scott
       伯特史蒂文斯 Bert Stevens
       林登·奇尔斯 Linden Chiles
       约翰·哈特 John Hart
       Caryl Lincoln Caryl Lincoln
       Louise Lorimer Louise Lorimer
       Milton Parsons Milton Parsons
       Murray Pollack Murray Pollack
       Hal Taggart Hal Taggart
       伯纳德·荷曼 Bernard Herrmann
       乔治·托马西尼 George Tomasini
       乔治·米洛 George Milo
       哈罗德·迈克尔逊 Harold Michelson
       Jack Barron Jack Barron
       Virginia Darcy Virginia Darcy
◎简  介
  聪明标致的公司女秘书玛尔妮·埃德加(蒂比·海德莉 Tippi Hedren饰)现实上是一位品行不真个女窃贼,嗜偷如命。几个月后,她偷走了公司保险柜里的快要一万美圆的现金,恰好公司的大顾客马克·鲁德兰(肖恩·康纳利 Sean Connery饰)也在场。他对这位冷艳奥秘的女人有着稠密的爱好。更有缘分的是,马克就是玛尔妮的新任老板。玛尔妮对红色的工具始终有着一种神经性的恐惧,这更让马克感觉这个怪异的女孩背后一定有着什么故事,诡计接近她。                                    
                                鲁德兰狠恶的恋爱攻势,让玛尔妮倍感发急和不安。虽然她也对这个风姿潇洒的英俊汉子动了心,却仍习惯性地从公司的保险柜里偷出现金,筹算远走高飞。马克实时阻止了她,并指导玛尔妮说出真话。面临自己难以超越的心理障碍,玛尔妮心里中那段不愿告人的身世之谜行将揭开面纱。
  1. ##### MediaInfo ######
  2. General
  3. Unique ID                                : 280837498542082804009296500278165601690 (0xD34755B51E5C12066C722721EEE17D9A)
  4. Complete name                            : Marnie.1964.BluRay.2160p.DTS-HD.MA.2.0.HDR.x265.10bit-CTRLHD.mkv
  5. Format                                   : Matroska
  6. Format version                           : Version 4
  7. File size                                : 21.3 GiB
  8. Duration                                 : 2 h 10 min
  9. Overall bit rate mode                    : Variable
  10. Overall bit rate                         : 23.4 Mb/s
  11. Movie name                               : Marnie
  12. Encoded date                             : UTC 2022-05-08 11:30:03
  13. Writing application                      : mkvmerge v63.0.0 ('Everything') 64-bit
  14. Writing library                          : libebml v1.4.2 + libmatroska v1.6.4
  15. Cover                                    : Yes
  16. Attachments                              : cover.jpg
  17. Video
  18. ID                                       : 1
  19. Format                                   : HEVC
  20. Format/Info                              : High Efficiency Video Coding
  21. Format profile                           : Main [email][email protected][/email]@High
  22. HDR format                               : SMPTE ST 2086, HDR10 compatible
  23. Codec ID                                 : V_MPEGH/ISO/HEVC
  24. Duration                                 : 2 h 10 min
  25. Bit rate                                 : 21.5 Mb/s
  26. Width                                    : 3 840 pixels
  27. Height                                   : 2 076 pixels
  28. Display aspect ratio                     : 1.85:1
  29. Frame rate mode                          : Constant
  30. Frame rate                               : 23.976 (24000/1001/53875) FPS
  31. Color space                              : YUV
  32. Chroma subsampling                       : 4:2:0 (Type 2)
  33. Bit depth                                : 10 bits
  34. Bits/(Pixel*Frame)                       : 0.113
  35. Stream size                              : 19.6 GiB (92%)
  36. Writing library                          : x265 3.5+2-g2b25c9ba0+87:[Windows][clang 12.0.1][64 bit] Kasumi 10bit
  37. Encoding settings                        : rc=crf / crf=15.0000 / qcomp=0.60 / qpstep=4 / stats-write=0 / stats-read=0 / no-lossless / no-cu-lossless / aq-mode=1 / aq-strength=1.00 / cbqpoffs=0 / crqpoffs=0 / ipratio=1.40 / pbratio=1.30 / psy-rd=3.00 / psy-rdoq=4.80 / deblock=0:0 / ref=6 / limit-refs=1 / no-limit-modes / bframes=14 / b-adapt=2 / bframe-bias=0 / b-pyramid / b-intra / weightp / weightb / min-keyint=23 / max-keyint=250 / rc-lookahead=75 / gop-lookahead=0 / NTM4NzU=uuDQuD2mJt9fsCf / scenecut=40 / hist-scenecut=0 / radl=0 / max-cu-size=64 / min-cu-size=8 / me=3 / subme=7 / merange=64 / rdoq-level=2 / rd=4 / rdpenalty=2 / dynamic-rd=0.00 / no-rd-refine / ----- / cutree / no-sao / no-rect / no-amp / no-open-gop / wpp / no-pmode / no-pme / no-psnr / no-ssim / nr-intra=0 / nr-inter=0 / no-constrained-intra / no-strong-intra-smoothing / max-tu-size=32 / tu-inter-depth=1 / tu-intra-depth=1 / limit-tu=0 / qg-size=32 / qpmax=69 / qpmin=0 / ----- / cpuid=538751111039 / frame-threads=6 / numa-pools=64,64,0,0 / log-level=2 / input-csp=1 / input-res=3840x2076 / interlace=0 / level-idc=0 / high-tier=1 / uhd-bd=0 / no-allow-non-conformance / repeat-headers / no-aud / no-hrd / info / hash=0 / no-temporal-layers / lookahead-slices=8 / no-splice / no-intra-refresh / no-ssim-rd / signhide / no-tskip / max-merge=3 / temporal-mvp / no-frame-dup / no-hme / no-analyze-src-pics / no-sao-non-deblock / selective-sao=0 / early-skip / rskip / no-fast-intra / no-tskip-fast / no-splitrd-skip / zone-count=0 / no-strict-cbr / no-rc-grain / no-const-vbv / sar=0 / overscan=0 / videoformat=5 / range=0 / colorprim=9 / transfer=16 / colormatrix=9 / chromaloc=1 / chromaloc-top=2 / chromaloc-bottom=2 / display-window=0 / master-display=G(13250,34500)B(7500,3000)R(34000,16000)WP(15635,16450)L(10000000,50) / cll=892,55 / min-luma=0 / max-luma=1023 / log2-max-poc-lsb=8 / vui-timing-info / vui-hrd-info / slices=1 / no-opt-qp-pps / no-opt-ref-list-length-pps / no-multi-pass-opt-rps / scenecut-bias=0.05 / hist-threshold=0.03 / no-opt-cu-delta-qp / aq-motion / hdr10 / hdr10-opt / no-dhdr10-opt / no-idr-recovery-sei / analysis-reuse-level=0 / analysis-save-reuse-level=0 / analysis-load-reuse-level=0 / scale-factor=0 / refine-intra=0 / refine-inter=0 / refine-mv=1 / refine-ctu-distortion=0 / no-limit-sao / ctu-info=0 / no-lowpass-dct / refine-analysis-type=0 / copy-pic=1 / max-ausize-factor=1.0 / no-dynamic-refine / no-single-sei / no-hevc-aq / no-svt / no-field / qp-adaptation-range=1.00 / scenecut-aware-qp=0conformance-window-offsets / right=0 / bottom=0 / NTM4NzU= / decoder-max-rate=0 / no-vbv-live-multi-pass
  38. Default                                  : Yes
  39. Forced                                   : No
  40. Color range                              : Limited
  41. Color primaries                          : BT.2020
  42. Transfer characteristics                 : PQ
  43. Matrix coefficients                      : BT.2020 non-constant
  44. Mastering display color primaries        : Display P3
  45. Mastering display luminance              : min: 0.0050 cd/m2, max: 1000 cd/m2
  46. Maximum Content Light Level              : 892 cd/m2
  47. Maximum Frame-Average Light Level        : 55 cd/m2
  48. Audio
  49. ID                                       : 2
  50. ID in the original source medium         : 4352 (0x1100)
  51. Format                                   : DTS XLL
  52. Format/Info                              : Digital Theater Systems
  53. Commercial name                          : DTS-HD Master Audio
  54. Codec ID                                 : A_DTS
  55. Duration                                 : 2 h 10 min
  56. Bit rate mode                            : Variable
  57. Bit rate                                 : 1 819 kb/s
  58. Channel(s)                               : 2 channels
  59. Channel layout                           : L R
  60. Sampling rate                            : 48.0 kHz
  61. Frame rate                               : 93.750 FPS (512 SPF)
  62. Bit depth                                : 24 bits
  63. Compression mode                         : Lossless
  64. Stream size                              : 1.66 GiB (8%)
  65. Language                                 : English
  66. Default                                  : Yes
  67. Forced                                   : No
  68. Original source medium                   : Blu-ray
  69. Text #1
  70. ID                                       : 3
  71. ID in the original source medium         : 4768 (0x12A0)
  72. Format                                   : PGS
  73. Muxing mode                              : zlib
  74. Codec ID                                 : S_HDMV/PGS
  75. Codec ID/Info                            : Picture based subtitle format used on BDs/HD-DVDs
  76. Duration                                 : 2 h 7 min
  77. Bit rate                                 : 44.2 kb/s
  78. Count of elements                        : 3056
  79. Stream size                              : 40.3 MiB (0%)
  80. Language                                 : English
  81. Default                                  : Yes
  82. Forced                                   : No
  83. Original source medium                   : Blu-ray
  84. Text #2
  85. ID                                       : 4
  86. ID in the original source medium         : 4779 (0x12AB)
  87. Format                                   : PGS
  88. Muxing mode                              : zlib
  89. Codec ID                                 : S_HDMV/PGS
  90. Codec ID/Info                            : Picture based subtitle format used on BDs/HD-DVDs
  91. Duration                                 : 2 h 9 min
  92. Bit rate                                 : 29.5 kb/s
  93. Count of elements                        : 2818
  94. Stream size                              : 27.3 MiB (0%)
  95. Title                                    : chs
  96. Language                                 : Chinese
  97. Default                                  : Yes
  98. Forced                                   : No
  99. Original source medium                   : Blu-ray
  100. Text #3
  101. ID                                       : 5
  102. ID in the original source medium         : 4780 (0x12AC)
  103. Format                                   : PGS
  104. Muxing mode                              : zlib
  105. Codec ID                                 : S_HDMV/PGS
  106. Codec ID/Info                            : Picture based subtitle format used on BDs/HD-DVDs
  107. Duration                                 : 2 h 9 min
  108. Bit rate                                 : 30.3 kb/s
  109. Count of elements                        : 2818
  110. Stream size                              : 28.1 MiB (0%)
  111. Title                                    : cht
  112. Language                                 : Chinese
  113. Default                                  : Yes
  114. Forced                                   : No
  115. Original source medium                   : Blu-ray
  116. Text #4
  117. ID                                       : 6
  118. ID in the original source medium         : 4781 (0x12AD)
  119. Format                                   : PGS
  120. Muxing mode                              : zlib
  121. Codec ID                                 : S_HDMV/PGS
  122. Codec ID/Info                            : Picture based subtitle format used on BDs/HD-DVDs
  123. Duration                                 : 2 h 9 min
  124. Bit rate                                 : 47.6 kb/s
  125. Count of elements                        : 2818
  126. Stream size                              : 44.1 MiB (0%)
  127. Title                                    : chs&eng
  128. Language                                 : Chinese
  129. Default                                  : Yes
  130. Forced                                   : No
  131. Original source medium                   : Blu-ray
  132. Text #5
  133. ID                                       : 7
  134. ID in the original source medium         : 4782 (0x12AE)
  135. Format                                   : PGS
  136. Muxing mode                              : zlib
  137. Codec ID                                 : S_HDMV/PGS
  138. Codec ID/Info                            : Picture based subtitle format used on BDs/HD-DVDs
  139. Duration                                 : 2 h 9 min
  140. Bit rate                                 : 48.4 kb/s
  141. Count of elements                        : 2818
  142. Stream size                              : 44.8 MiB (0%)
  143. Title                                    : cht&eng
  144. Language                                 : Chinese
  145. Default                                  : Yes
  146. Forced                                   : No
  147. Original source medium                   : Blu-ray
  148. Menu
  149. 00:00:00.000                             : en:第 01 章
  150. 00:01:59.119                             : en:第 02 章
  151. 00:08:47.985                             : en:第 03 章
  152. 00:18:52.422                             : en:第 04 章
  153. 00:25:58.640                             : en:第 05 章
  154. 00:28:50.228                             : en:第 06 章
  155. 00:34:55.551                             : en:第 07 章
  156. 00:39:57.728                             : en:第 08 章
  157. 00:43:56.383                             : en:第 09 章
  158. 00:48:59.353                             : en:第 10 章
  159. 01:00:33.087                             : en:第 11 章
  160. 01:07:44.810                             : en:第 12 章
  161. 01:19:32.100                             : en:第 13 章
  162. 01:30:45.523                             : en:第 14 章
  163. 01:37:39.562                             : en:第 15 章
  164. 01:45:05.132                             : en:第 16 章
  165. 01:49:52.502                             : en:第 17 章
  166. 01:55:55.698                             : en:第 18 章
  167. 01:59:09.976                             : en:第 19 章
  168. 02:09:28.552                             : en:第 20 章
复制代码











回复

使用道具 举报

蓝光币
88
发表于 4 天前 | 显示全部楼层

感谢楼主的无私分享!要想蓝光电影网好 就靠你我他
回复 支持 反对

使用道具 举报

懒得打字嘛,点击右侧快捷回复 【右侧内容,后台自定义】
您需要登录后才可以回帖 登录 | 立即加入

本版积分规则

Archiver|小黑屋| 蓝光电影网 |网站地图

Copyright © 2021 Comsenz Inc. Powered by 蓝光电影网

蓝光电影网

本站内容由用户自主分享和转载自互联网,转载目的在于传递更多信息,并不代表本网赞同其观点和对其真实性负责。

如有侵权、违反国家法律政策行为,请联系我们,我们会第一时间及时清除和处理!

举报反馈邮箱:[email protected]

快速回复 返回顶部 返回列表