找回密码

蓝光电影网

查看: 108|回复: 3

[2160p-WEB] 开棺[杜比视界版本][国语配音/中文字幕].Open.The.Coffin.2022.DoVi.WEB-DL.4K.H265.AAC-HOMEWEB 6.15GB

[复制链接]
蓝光币
3
发表于 4 天前 | 显示全部楼层 |阅读模式
开棺[杜比视界版本][国语配音/中笔墨幕].Open.The.Coffin.2022.DoVi.WEB-DL.4K.H265.AAC-HOMEWEB 6.15GB-1.jpeg

◎译  名 开棺
◎年  代 2022
◎产  地 中国大陆
◎类  别 悬疑 / 惊悚
◎语  言 汉语普通话
◎上映日期 2022-05-02(中国大陆收集)
◎IMDb链接 https://www.imdb.com/title//
◎豆瓣链接 https://movie.douban.com/subject/35814526/
◎编  剧 黄梦梦 Mengmeng Huang
       牛欢 Huan Niu
◎演  员 韩栋 Dong Han
       姜超 Chao Jiang
       何中华 Zhonghua He
       佟磊 Lei Tong
       周晓鸥 Xiaoou Zhou
◎简  介
  消失三年的“鬼手”及其盗墓团伙重现江城,再次堪舆点穴下墓摸金。怎料,四名盗墓贼在开棺之时遭受惊魂邪煞,逃离墓葬以后又接连惨死家中。古墓“尸毒”和命宫印堂之上的分魂针孔,成为留给差人沈春合唯一的查案线索。看似普通的盗墓案,瞬间扑朔迷离,疑点重重。四人是盗墓太多自食报应丧命,还是分魂针所指的换命转病,遭人蓄意谋杀?盗墓掌眼“鬼手”的奥秘身份,更是牵出陈年谋杀差人旧案。沈春合联手法医韩冰,解刨验尸身、下墓取尸毒、棺材店中破魔法、纸扎店里缉真凶。
  1. ##### MediaInfo ######
  2. General
  3. Complete name                            : Open.The.Coffin.2022.DoVi.WEB-DL.4K.H265.AAC-HOMEWEB.mp4
  4. Format                                   : MPEG-4
  5. Format profile                           : Base Media
  6. Codec ID                                 : isom (isom/dby1/iso2/mp41)
  7. File size                                : 6.15 GiB
  8. Duration                                 : 1 h 32 min
  9. Overall bit rate mode                    : Variable
  10. Overall bit rate                         : 9 519 kb/s
  11. Writing application                      : Lavf59.16.100
  12. Video
  13. ID                                       : 1
  14. Format                                   : HEVC
  15. Format/Info                              : High Efficiency Video Coding
  16. Format profile                           : Main [email protected]@Main
  17. HDR format                               : Dolby Vision, Version 1.0, dvhe.05.06, BL+RPU
  18. Codec ID                                 : hev1
  19. Codec ID/Info                            : High Efficiency Video Coding
  20. Duration                                 : 1 h 32 min
  21. Bit rate                                 : 9 258 kb/s
  22. Width                                    : 3 840 pixels
  23. Height                                   : 1 636 pixels
  24. Display aspect ratio                     : 2.35:1
  25. Frame rate mode                          : Constant
  26. Frame rate                               : 25.000 FPS
  27. Color space                              : YUV
  28. Chroma subsampling                       : 4:2:0
  29. Bit depth                                : 10 bits
  30. Bits/(Pixel*Frame)                       : 0.059
  31. Stream size                              : 5.98 GiB (97%)
  32. Color range                              : Full
  33. Codec configuration box                  : hvcC+dvcC
  34. Audio
  35. ID                                       : 2
  36. Format                                   : AAC LC
  37. Format/Info                              : Advanced Audio Codec Low Complexity
  38. Codec ID                                 : mp4a-40-2
  39. Duration                                 : 1 h 32 min
  40. Bit rate mode                            : Variable
  41. Bit rate                                 : 253 kb/s
  42. Maximum bit rate                         : 256 kb/s / 256 kb/s
  43. Channel(s)                               : 2 channels
  44. Channel layout                           : L R
  45. Sampling rate                            : 48.0 kHz
  46. Frame rate                               : 46.875 FPS (1024 SPF)
  47. Compression mode                         : Lossy
  48. Stream size                              : 168 MiB (3%)
  49. Default                                  : Yes
  50. Alternate group                          : 1

复制代码


开棺[杜比视界版本][国语配音/中笔墨幕].Open.The.Coffin.2022.DoVi.WEB-DL.4K.H265.AAC-HOMEWEB 6.15GB-2.jpeg
开棺[杜比视界版本][国语配音/中笔墨幕].Open.The.Coffin.2022.DoVi.WEB-DL.4K.H265.AAC-HOMEWEB 6.15GB-3.jpeg
开棺[杜比视界版本][国语配音/中笔墨幕].Open.The.Coffin.2022.DoVi.WEB-DL.4K.H265.AAC-HOMEWEB 6.15GB-4.jpeg
开棺[杜比视界版本][国语配音/中笔墨幕].Open.The.Coffin.2022.DoVi.WEB-DL.4K.H265.AAC-HOMEWEB 6.15GB-5.jpeg
开棺[杜比视界版本][国语配音/中笔墨幕].Open.The.Coffin.2022.DoVi.WEB-DL.4K.H265.AAC-HOMEWEB 6.15GB-6.jpeg
开棺[杜比视界版本][国语配音/中笔墨幕].Open.The.Coffin.2022.DoVi.WEB-DL.4K.H265.AAC-HOMEWEB 6.15GB-7.jpeg










回复

使用道具 举报

蓝光币
31
发表于 3 天前 | 显示全部楼层
看这个资源的海报,是一具艳尸呀,套路不过如此,也不见得有什么新意。
回复 支持 反对

使用道具 举报

蓝光币
31
发表于 3 天前 | 显示全部楼层
看这个资源的海报,是一具艳尸呀,套路不过如此,也不见得有什么新意。
回复 支持 反对

使用道具 举报

蓝光币
101
发表于 3 天前 | 显示全部楼层
谢谢更放心。
回复 支持 反对

使用道具 举报

懒得打字嘛,点击右侧快捷回复 【右侧内容,后台自定义】
您需要登录后才可以回帖 登录 | 立即加入

本版积分规则

Archiver|小黑屋| 蓝光电影网 |网站地图

Copyright © 2021 Comsenz Inc. Powered by 蓝光电影网

蓝光电影网

本站内容由用户自主分享和转载自互联网,转载目的在于传递更多信息,并不代表本网赞同其观点和对其真实性负责。

如有侵权、违反国家法律政策行为,请联系我们,我们会第一时间及时清除和处理!

举报反馈邮箱:[email protected]

快速回复 返回顶部 返回列表