找回密码

蓝光电影网

查看: 1318|回复: 46

卖座大电影 Box.Office.3D.The.Filmest.of.Films.2011.ITALIAN.1080p.BluRay.x264.DTS-HANDJOB 7.48GB

[复制链接]
蓝光币
886
发表于 2022-5-15 09:05:00 | 显示全部楼层 |阅读模式


◎译  名 卖座大电影
◎片  名 Box Office 3D
◎年  代 2011
◎产  地 意大利
◎类  别 笑剧
◎语  言 意大利语
◎IMDb链接 https://www.imdb.com/title/tt1969959/
◎豆瓣评分 4.0/10 (149人评价)
◎豆瓣链接 https://movie.douban.com/subject/6835256/
◎演  员 安娜·法尔奇 Anna Falchi (id:1045204)
       吉娜·劳洛勃丽吉达 Gina Lollobrigida (id:1009449)
       埃奇妙·格雷乔 Ezio Greggio (id:1000935)
       吉吉·普罗耶蒂 Gigi Proietti (id:1041880)
       乔吉亚·伍尔斯 Giorgia Wurth (id:1248935)
◎简  介

  《卖座大电影》是由EzioGreggio导演,他的电影凡是是票房不俗的低劣笑剧。从意大利媒体的反应来看,此次似乎也不破例,虽然有3D的技术,外加拿梅尔·布鲁克斯(MelBrooks)气概作挡箭牌。在这部恶搞笑剧中,导演埃奇妙·格雷乔报告了一个无厘头的穿越故事。不外配角却不是在历史中穿越,而是在各类分歧范例的电影中穿越。这些电影都有一个配合的特点:都是卖座的大电影。这些被配角们穿越的电影有:《达芬奇密码》、《暮色》、《哈利·波特》、《佐罗》、《速度与豪情》、《阿凡达》、《007》、《角斗士》等等。
  1. Video
  2. ID                                       : 1
  3. Format                                   : AVC
  4. Format/Info                              : Advanced Video Codec
  5. Format profile                           : [email protected]
  6. Format settings                          : CABAC / 4 Ref Frames
  7. Format settings, CABAC                   : Yes
  8. Format settings, Reference frames        : 4 frames
  9. Codec ID                                 : V_MPEG4/ISO/AVC
  10. Duration                                 : 1 h 42 min
  11. Bit rate                                 : 8 970 kb/s
  12. Width                                    : 1 916 pixels
  13. Height                                   : 1 036 pixels
  14. Display aspect ratio                     : 1.85:1
  15. Frame rate mode                          : Constant
  16. Frame rate                               : 23.976 (24000/1001/189150) FPS
  17. Color space                              : YUV
  18. Chroma subsampling                       : 4:2:0
  19. Bit depth                                : 8 bits
  20. Scan type                                : Progressive
  21. Bits/(Pixel*Frame)                       : 0.188
  22. Stream size                              : 6.39 GiB (85%)
  23. Writing library                          : x264 core 164 r3065 ae03d92
  24. Encoding settings                        : cabac=1 / ref=4 / deblock=1:-3:-3 / analyse=0x3:0x133 / me=umh / subme=10 / psy=1 / psy_rd=1.00:0.00 / mixed_ref=1 / me_range=32 / chroma_me=1 / trellis=2 / 8x8dct=1 / cqm=0 / deadzone=21,11 / fast_pskip=0 / chroma_qp_offset=-2 / threads=32 / lookahead_threads=8 / sliced_threads=0 / nr=0 / decimate=0 / interlaced=0 / bluray_compat=0 / constrained_intra=0 / bframes=16 / b_pyramid=2 / b_adapt=2 / b_bias=0 / direct=3 / weightb=1 / open_gop=0 / weightp=2 / keyint=240 / keyint_min=24 / scenecut=40 / intra_refresh=0 / rc_lookahead=60 / rc=crf / mbtree=0 / crf=20.0 / qcomp=0.60 / qpmin=0 / qpmax=69 / qpstep=4 / vbv_maxrate=62500 / vbv_bufsize=78125 / crf_max=0.0 / nal_hrd=none / filler=0 / ip_ratio=1.40 / pb_ratio=1.30 / aq=2:1.00
  25. Default                                  : Yes
  26. Forced                                   : No
  27. Color range                              : Limited
  28. Color primaries                          : BT.709
  29. Transfer characteristics                 : BT.709
  30. Matrix coefficients                      : BT.709
  31. Audio
  32. ID                                       : 2
  33. Format                                   : DTS
  34. Format/Info                              : Digital Theater Systems
  35. Codec ID                                 : A_DTS
  36. Duration                                 : 1 h 42 min
  37. Bit rate mode                            : Constant
  38. Bit rate                                 : 1 509 kb/s
  39. Channel(s)                               : 6 channels
  40. Channel layout                           : C L R Ls Rs LFE
  41. Sampling rate                            : 48.0 kHz
  42. Frame rate                               : 93.750 FPS (512 SPF)
  43. Bit depth                                : 24 bits
  44. Compression mode                         : Lossy
  45. Stream size                              : 1.08 GiB (14%)
  46. Language                                 : Italian
  47. Default                                  : Yes
  48. Forced                                   : No
  49. Text #1
  50. ID                                       : 3
  51. Format                                   : UTF-8
  52. Codec ID                                 : S_TEXT/UTF8
  53. Codec ID/Info                            : UTF-8 Plain Text
  54. Duration                                 : 1 h 37 min
  55. Bit rate                                 : 68 b/s
  56. Count of elements                        : 1266
  57. Stream size                              : 48.8 KiB (0%)
  58. Language                                 : English
  59. Default                                  : Yes
  60. Forced                                   : No
  61. Text #2
  62. ID                                       : 4
  63. Format                                   : PGS
  64. Muxing mode                              : zlib
  65. Codec ID                                 : S_HDMV/PGS
  66. Codec ID/Info                            : Picture based subtitle format used on BDs/HD-DVDs
  67. Duration                                 : 1 h 35 min
  68. Bit rate                                 : 47.5 kb/s
  69. Count of elements                        : 2708
  70. Stream size                              : 32.6 MiB (0%)
  71. Language                                 : Italian
  72. Default                                  : No
  73. Forced                                   : No
  74. Menu
  75. 00:00:00.000                             : :Chapter 1
  76. 00:03:17.030                             : :Chapter 2
  77. 00:20:21.178                             : :Chapter 3
  78. 00:23:10.681                             : :Chapter 4
  79. 00:28:24.620                             : :Chapter 5
  80. 00:47:35.895                             : :Chapter 6
  81. 00:49:53.991                             : :Chapter 7
  82. 00:54:26.096                             : :Chapter 8
  83. 00:56:54.745                             : :Chapter 9
  84. 01:01:57.255                             : :Chapter 10
  85. 01:07:09.609                             : :Chapter 11
  86. 01:12:21.754                             : :Chapter 12
复制代码







                                       
                                       

                                       
                                       
                                       




回复

使用道具 举报

蓝光币
144
发表于 2022-5-16 12:32:27 | 显示全部楼层
楼主发贴辛苦了,谢谢楼主分享!我觉得蓝光电影网是注册对了!
回复 支持 反对

使用道具 举报

蓝光币
9
发表于 2022-5-16 18:33:01 | 显示全部楼层
楼主发贴辛苦了,谢谢楼主分享!我觉得蓝光电影网是注册对了!
回复 支持 反对

使用道具 举报

蓝光币
155
发表于 2022-5-17 17:32:10 | 显示全部楼层
楼主发贴辛苦了,谢谢楼主分享!我觉得蓝光电影网是注册对了!
回复 支持 反对

使用道具 举报

蓝光币
317
发表于 2022-5-19 17:21:31 | 显示全部楼层

既然你诚信诚意的推荐了,那我就勉为其难的看看吧!蓝光电影网不走平凡路。
回复 支持 反对

使用道具 举报

蓝光币
2
发表于 2022-5-20 23:47:29 | 显示全部楼层

楼主太厉害了!楼主,电影应该很好看我觉得蓝光电影网真是个好地方!
回复 支持 反对

使用道具 举报

蓝光币
58
发表于 2022-5-26 20:41:06 | 显示全部楼层

感谢楼主的无私分享!要想蓝光电影网好 就靠你我他
回复 支持 反对

使用道具 举报

蓝光币
149
发表于 2022-5-28 17:44:43 | 显示全部楼层
谢谢分享。
回复

使用道具 举报

蓝光币
99
发表于 2022-5-31 09:48:31 | 显示全部楼层
楼主太厉害了!楼主,电影应该很好看我觉得蓝光电影网真是个好地方!
回复 支持 反对

使用道具 举报

蓝光币
99
发表于 2022-6-2 18:38:14 | 显示全部楼层
既然你诚信诚意的推荐了,那我就勉为其难的看看吧!蓝光电影网不走平凡路。
回复 支持 反对

使用道具 举报

懒得打字嘛,点击右侧快捷回复 【右侧内容,后台自定义】
您需要登录后才可以回帖 登录 | 立即加入

本版积分规则

Archiver|小黑屋| 蓝光电影网 |网站地图

Copyright © 2021 Comsenz Inc. Powered by 蓝光电影网

蓝光电影网

本站内容由用户自主分享和转载自互联网,转载目的在于传递更多信息,并不代表本网赞同其观点和对其真实性负责。

如有侵权、违反国家法律政策行为,请联系我们,我们会第一时间及时清除和处理!

举报反馈邮箱:[email protected]

快速回复 返回顶部 返回列表