找回密码

蓝光电影网

查看: 251|回复: 6

[10bit.HDR] 旺角卡门[国粤多音轨/简繁英字幕].As.Tears.Go.By.1988.2160p.HDR.UHD.BluRay.DD5.1.2Audio.x265-10bit-ENTHD 13.00GB

[复制链接]
蓝光币
5
发表于 2022-5-23 03:25:42 | 显示全部楼层 |阅读模式
旺角卡门[国粤多音轨/简繁英字幕].As.Tears.Go.By.1988.2160p.HDR.UHD.BluRay.DD5.1.2Audio.x265-10bit-ENTHD 13.00GB-1.jpeg

◎译  名 旺角卡门 / 热血男儿(台) / As Tears Go By
◎片  名 旺角卡門
◎年  代 1988
◎产  地 中国香港
◎类  别 剧情 / 恋爱 / 犯罪
◎语  言 粤语
◎上映日期 1988-06-09(中国香港)
◎IMDb链接 https://www.imdb.com/title/tt0096461/
◎豆瓣评分 7.8/10 (190535人评价)
◎豆瓣链接 https://movie.douban.com/subject/1304624/
◎片  长 102 分钟
◎导  演 王家卫 Kar Wai Wong
◎编  剧 王家卫 Kar Wai Wong
◎演  员 刘德华 Andy Lau
       张学友 Jacky Cheung
       张曼玉 Maggie Cheung
       万梓良 Alex Man
       林蛟 Kau Lam
       黄斌 Ronald Wong
       陈志辉 Chi Fai Chan
       江道海 To-hoi Kong
       张叔平 William Chang
       黄拔景 Huang Pa-Ching
       邓泰和 Tai Wo Tang
       陈文妤 Man-Hiu Chan
       张荣祥 Cheung Wing-Cheung
       秦贵宝 Kwai Po Chun
       刘伟强 Andrew Lau
       简达华 Tat-Wah Gan
       许芬 Fan Hui
       江浪 Kong Long
       黄莺 Canary Wong
       马玉成 Yuk-Sing Ma
       白茵 Yan Pak
       甘山 San Gam  (id:1316752)
       钟定一 Danny Chung
       缪健辉 Tony Miu
       刘伟强 Andrew Lau
       敖志君 Peter Ngor
       曹惠琪 Hui-Chi Tsao
       蒋彼得 Pi Tak Cheong
       张叔平 William Chang
       卢瑞莲 Sui Lin Lo
       江约诚 Johnnie Kong Yeuk-Sing
       江道海 To-hoi Kong
       董玮 Wai Tung
       黄志明 Wong Chi-Ming
       邓名誉 Alan Tang
◎简  介
  香港九龙区旺角混混阿杰(刘德华)干事爽利重情谊,很有老迈风采,为了照顾干事感动又好体面的小弟乌蝇(张学友),他不停地在各类巨细麻烦中周旋,甚至不惜为乌蝇与黑道狠脚色(万梓良)结仇。                                    
                                阿杰表妹阿娥(张曼玉)前来旺角看病暂住他家,两人渐渐互生情愫,但由于担忧自己的身份终极会给阿娥带来危险,阿杰挑选了将苦衷埋藏。待阿杰大白真情抑压不住想对命运做番抵抗时,乌蝇却再次因好体面面临生命危险,因而一道友谊与恋爱必选其一的困难重又摆在阿杰眼前。
◎获奖情况 (共12项)
  第25届台北金马影展 (1988)
  金马奖 最好导演(提名)
   └──王家卫
  金马奖 最好美术设想(提名)
   └──张叔平
  第8届香港电影金像奖 (1989)
  最好电影(提名)
  最好导演(提名)
   └──王家卫
  最好男配角(提名)
   └──刘德华
  最好女配角(提名)
   └──张曼玉
  最好男配角
   └──张学友
  最好男配角(提名)
   └──万梓良
  最好摄影(提名)
   └──刘伟强
  最好剪接(提名)
   └──蒋彼得
  最好美术指导
   └──张叔平
  最好原创电影音乐(提名)
   └──钟定一
  1. ##### MediaInfo ######
  2. General
  3. Unique ID                                : 268715540100232629742914339283018652775 (0xCA28BB035DE4192DE53F59907B7B1C67)
  4. Complete name                            : As.Tears.Go.By.1988.2160p.HDR.UHD.BluRay.DD5.1.2Audio.x265-10bit-ENTHD.mkv
  5. Format                                   : Matroska
  6. Format version                           : Version 4
  7. File size                                : 13.0 GiB
  8. Duration                                 : 1 h 39 min
  9. Overall bit rate                         : 18.8 Mb/s
  10. Movie name                               : As Tears Go By 1988 2160p HDR UHD BluRay DD5.1 2Audio x265-10bit-HDS
  11. Encoded date                             : UTC 2022-05-21 23:34:08
  12. Writing application                      : mkvmerge v67.0.0 ('Under Stars') 64-bit
  13. Writing library                          : libebml v1.4.2 + libmatroska v1.6.4
  14. Video
  15. ID                                       : 1
  16. Format                                   : HEVC
  17. Format/Info                              : High Efficiency Video Coding
  18. Format profile                           : Main [email][email protected][/email]@High
  19. HDR format                               : SMPTE ST 2086, HDR10 compatible
  20. Codec ID                                 : V_MPEGH/ISO/HEVC
  21. Duration                                 : 1 h 39 min
  22. Bit rate                                 : 17.7 Mb/s
  23. Width                                    : 3 840 pixels
  24. Height                                   : 2 160 pixels
  25. Display aspect ratio                     : 16:9
  26. Frame rate mode                          : Constant
  27. Frame rate                               : 23.976 (24000/1001/53875) FPS
  28. Color space                              : YUV
  29. Chroma subsampling                       : 4:2:0
  30. Bit depth                                : 10 bits
  31. Bits/(Pixel*Frame)                       : 0.089
  32. Stream size                              : 12.2 GiB (94%)
  33. Title                                    : @HDSky
  34. Writing library                          : x265 - H.265/HEVC codec
  35. Default                                  : Yes
  36. Forced                                   : No
  37. Color range                              : Limited
  38. Color primaries                          : BT.2020
  39. Transfer characteristics                 : PQ
  40. Matrix coefficients                      : BT.2020 non-constant
  41. Mastering display color primaries        : BT.2020
  42. Mastering display luminance              : min: 0.0010 cd/m2, max: 1000 cd/m2
  43. Maximum Content Light Level              : 1000 cd/m2
  44. Maximum Frame-Average Light Level        : 400 cd/m2
  45. Audio #1
  46. ID                                       : 2
  47. Format                                   : AC-3
  48. Format/Info                              : Audio Coding 3
  49. Commercial name                          : Dolby Digital
  50. Codec ID                                 : A_AC3
  51. Duration                                 : 1 h 39 min
  52. Bit rate mode                            : Constant
  53. Bit rate                                 : 640 kb/s
  54. Channel(s)                               : 6 channels
  55. Channel layout                           : L R C LFE Ls Rs
  56. Sampling rate                            : 48.0 kHz
  57. Frame rate                               : 31.250 FPS (1536 SPF)
  58. Compression mode                         : Lossy
  59. Stream size                              : 454 MiB (3%)
  60. Title                                    : Cantonese
  61. Language                                 : Chinese
  62. Service kind                             : Complete Main
  63. Default                                  : Yes
  64. Forced                                   : No
  65. Audio #2
  66. ID                                       : 3
  67. Format                                   : AC-3
  68. Format/Info                              : Audio Coding 3
  69. Commercial name                          : Dolby Digital
  70. Codec ID                                 : A_AC3
  71. Duration                                 : 1 h 39 min
  72. Bit rate mode                            : Constant
  73. Bit rate                                 : 448 kb/s
  74. Channel(s)                               : 2 channels
  75. Channel layout                           : L R
  76. Sampling rate                            : 48.0 kHz
  77. Frame rate                               : 31.250 FPS (1536 SPF)
  78. Compression mode                         : Lossy
  79. Stream size                              : 318 MiB (2%)
  80. Title                                    : Mandarin
  81. Language                                 : Chinese
  82. Service kind                             : Complete Main
  83. Default                                  : Yes
  84. Forced                                   : No
  85. Text #1
  86. ID                                       : 4
  87. Format                                   : PGS
  88. Muxing mode                              : zlib
  89. Codec ID                                 : S_HDMV/PGS
  90. Codec ID/Info                            : Picture based subtitle format used on BDs/HD-DVDs
  91. Duration                                 : 1 h 31 min
  92. Bit rate                                 : 25.5 kb/s
  93. Count of elements                        : 1742
  94. Stream size                              : 16.7 MiB (0%)
  95. Title                                    : ENG
  96. Language                                 : English
  97. Default                                  : Yes
  98. Forced                                   : No
  99. Text #2
  100. ID                                       : 5
  101. Format                                   : PGS
  102. Muxing mode                              : zlib
  103. Codec ID                                 : S_HDMV/PGS
  104. Codec ID/Info                            : Picture based subtitle format used on BDs/HD-DVDs
  105. Duration                                 : 1 h 31 min
  106. Bit rate                                 : 19.4 kb/s
  107. Count of elements                        : 1927
  108. Stream size                              : 12.8 MiB (0%)
  109. Title                                    : CHS
  110. Language                                 : Chinese
  111. Default                                  : Yes
  112. Forced                                   : No
  113. Text #3
  114. ID                                       : 6
  115. Format                                   : PGS
  116. Muxing mode                              : zlib
  117. Codec ID                                 : S_HDMV/PGS
  118. Codec ID/Info                            : Picture based subtitle format used on BDs/HD-DVDs
  119. Duration                                 : 1 h 31 min
  120. Bit rate                                 : 21.0 kb/s
  121. Count of elements                        : 1927
  122. Stream size                              : 13.8 MiB (0%)
  123. Title                                    : CHT
  124. Language                                 : Chinese
  125. Default                                  : Yes
  126. Forced                                   : No
  127. Menu
  128. 00:00:00.000                             : en:第 01 章
  129. 00:07:58.894                             : en:第 02 章
  130. 00:12:17.570                             : en:第 03 章
  131. 00:18:04.625                             : en:第 04 章
  132. 00:24:06.403                             : en:第 05 章
  133. 00:28:54.273                             : en:第 06 章
  134. 00:36:24.097                             : en:第 07 章
  135. 00:43:43.202                             : en:第 08 章
  136. 00:47:31.597                             : en:第 09 章
  137. 00:56:53.617                             : en:第 10 章
  138. 01:01:49.371                             : en:第 11 章
  139. 01:08:37.822                             : en:第 12 章
  140. 01:15:17.179                             : en:第 13 章
  141. 01:24:58.426                             : en:第 14 章
  142. 01:29:26.903                             : en:第 15 章
  143. 01:37:30.761                             : en:第 16 章
复制代码


旺角卡门[国粤多音轨/简繁英字幕].As.Tears.Go.By.1988.2160p.HDR.UHD.BluRay.DD5.1.2Audio.x265-10bit-ENTHD 13.00GB-2.jpeg
旺角卡门[国粤多音轨/简繁英字幕].As.Tears.Go.By.1988.2160p.HDR.UHD.BluRay.DD5.1.2Audio.x265-10bit-ENTHD 13.00GB-3.jpeg
旺角卡门[国粤多音轨/简繁英字幕].As.Tears.Go.By.1988.2160p.HDR.UHD.BluRay.DD5.1.2Audio.x265-10bit-ENTHD 13.00GB-4.jpeg
旺角卡门[国粤多音轨/简繁英字幕].As.Tears.Go.By.1988.2160p.HDR.UHD.BluRay.DD5.1.2Audio.x265-10bit-ENTHD 13.00GB-5.jpeg
旺角卡门[国粤多音轨/简繁英字幕].As.Tears.Go.By.1988.2160p.HDR.UHD.BluRay.DD5.1.2Audio.x265-10bit-ENTHD 13.00GB-6.jpeg
旺角卡门[国粤多音轨/简繁英字幕].As.Tears.Go.By.1988.2160p.HDR.UHD.BluRay.DD5.1.2Audio.x265-10bit-ENTHD 13.00GB-7.jpeg










回复

使用道具 举报

蓝光币
18
发表于 2022-5-23 21:13:34 | 显示全部楼层
楼主发贴辛苦了,谢谢楼主分享!我觉得蓝光电影网是注册对了!
回复 支持 1 反对 0

使用道具 举报

蓝光币
11
发表于 2022-5-23 07:30:25 | 显示全部楼层
楼主发贴辛苦了,谢谢楼主分享!我觉得蓝光电影网是注册对了!
回复 支持 反对

使用道具 举报

蓝光币
72
发表于 2022-5-23 11:26:30 | 显示全部楼层
楼主发贴辛苦了,谢谢楼主分享!我觉得蓝光电影网是注册对了!
回复 支持 反对

使用道具 举报

蓝光币
26
发表于 2022-5-23 13:00:43 | 显示全部楼层
谢谢楼主分享!
回复 支持 反对

使用道具 举报

蓝光币
61
发表于 2022-5-23 18:18:47 | 显示全部楼层

这东西我收了!谢谢楼主!蓝光电影网真好!
回复 支持 反对

使用道具 举报

蓝光币
18
发表于 2022-5-24 09:30:50 | 显示全部楼层
好东西,感谢楼主无私分享
回复 支持 反对

使用道具 举报

懒得打字嘛,点击右侧快捷回复 【右侧内容,后台自定义】
您需要登录后才可以回帖 登录 | 立即加入

本版积分规则

Archiver|小黑屋| 蓝光电影网 |网站地图

Copyright © 2021 Comsenz Inc. Powered by 蓝光电影网

蓝光电影网

本站内容由用户自主分享和转载自互联网,转载目的在于传递更多信息,并不代表本网赞同其观点和对其真实性负责。

如有侵权、违反国家法律政策行为,请联系我们,我们会第一时间及时清除和处理!

举报反馈邮箱:[email protected]

快速回复 返回顶部 返回列表