找回密码

蓝光电影网

查看: 101|回复: 0

[剧情] 无情大地有情天 Flesh.and.Bone.1993.1080p.BluRay.x264.DTS-FGT 11.47GB

[复制链接]
蓝光币
953
发表于 2022-5-31 17:00:56 | 显示全部楼层 |阅读模式


◎译  名 无情大地有情天 / 骨中肉
◎片  名 Flesh and Bone
◎年  代 1993
◎产  地 美国
◎类  别 剧情 / 恋爱 / 悬疑
◎语  言 英语
◎上映日期 1993-11-05
◎IMDb链接 https://www.imdb.com/title/tt0106926/
◎豆瓣评分 6.8/10 (343人评价)
◎豆瓣链接 https://movie.douban.com/subject/1301545/
◎片  长 126 分钟
◎导  演 史蒂夫·克洛夫斯 Steve Kloves (id:1107737)
◎编  剧 史蒂夫·克洛夫斯 Steve Kloves (id:1107737)
◎演  员 Julia McNeal Julia McNeal (id:1124138)
       Jerry Swindall Jerry Swindall (id:1160423)
       詹姆斯·肯恩 James Caan (id:1000050)
       丹尼斯·奎德 Dennis Quaid (id:1002679)
       芭芭拉·阿琳·伍兹 Barbara Alyn Woods (id:1032167)
       格温妮斯·帕特洛 Gwyneth Paltrow (id:1018985)
       梅格·瑞恩 Meg Ryan (id:1016679)
       斯科特·威尔森 Scott Wilson (id:1002813)
       James N. Harrell James N. Harrell (id:1096609)
       Héctor García Héctor García (id:1091755)
       贝齐·布兰特利 Betsy Brantley (id:1074472)
       约翰·浩克斯 John Hawkes (id:1100849)
       维克·波利佐斯 Vic Polizos (id:1358648)
       克里斯多夫·莱德尔 Christopher Rydell (id:1348020)
       乔·史蒂文斯 Joe Stevens (id:1313165)
       利比·维拉利 Libby Villari (id:1341872)
       盖尔·克罗纳奥尔 Gail Cronauer (id:1077984)
       Jim Bob Howard Jim Bob Howard (id:1095779)
        Buck Reynolds (id:1256239)
       Paula Weinstein Paula Weinstein (id:1300618)
       西德尼·波拉克 Sydney Pollack (id:1010608)
       Mark Rosenberg Mark Rosenberg (id:1296078)
       莎丽·哈姆里克 Shari Hamrick (id:1051099)
       托马斯·纽曼 Thomas Newman (id:1027939)
       菲利普·鲁斯洛特 Philippe Rousselot (id:1050316)
       Mia Goldman Mia Goldman (id:1285053)
       里萨·布雷蒙·加西亚 Risa Bramon Garcia (id:1284503)
       乔尔·贝斯特洛浦 Juel Bestrop (id:1278551)
       Charles Breen Charles Breen (id:1276383)
       乔恩·赫特曼 Jon Hutman (id:1287219)
       伊丽莎白·麦克布莱德 Elizabeth McBride (id:1046248)
       莱昂纳德·恩格尔曼 Leonard Engelman (id:1283204)
       Dorothy J. Pearl Dorothy J. Pearl (id:1294172)
       科琳·卡拉甘 Colleen Callaghan (id:1279892)
       J·M·洛根 J.M. Logan (id:1025708)
       Cara Giallanza Cara Giallanza (id:1284785)
◎简  介

  埃利斯(丹尼斯·奎德 Dennis Quaid 饰)是一位贩子,已经有过一段很是黑暗的曩昔。他的父亲罗伊(詹姆斯·卡恩 James Caan 饰)是一位杀人凶手,犯下过灭门的惨案。父亲带给埃利斯的阴影一向延续到他成年。以后,在一场旅途中,埃利斯相逢了名为戴维斯(梅格·瑞恩 Meg Ryan 饰)的女子,戴维斯温柔而又善良,她的出现拯救了埃利斯一团乱麻的生活。很快,两人就坠入了情网,走到了一路。                                    
                                现实上,戴维斯也有着悲凉的履历,她的一切家人都死于一场谋杀,而她是唯一的一位幸存者。埃利斯可怕的预见获得了证实,杀死戴维斯家人的不是他人,正是自己的父亲。
  1. Video
  2. ID                                       : 1
  3. Format                                   : AVC
  4. Format/Info                              : Advanced Video Codec
  5. Format profile                           : [email protected]
  6. Format settings                          : CABAC / 4 Ref Frames
  7. Format settings, CABAC                   : Yes
  8. Format settings, Reference frames        : 4 frames
  9. Codec ID                                 : V_MPEG4/ISO/AVC
  10. Duration                                 : 2 h 6 min
  11. Bit rate                                 : 11.5 Mb/s
  12. Width                                    : 1 916 pixels
  13. Height                                   : 1 080 pixels
  14. Display aspect ratio                     : 16:9
  15. Frame rate mode                          : Constant
  16. Frame rate                               : 23.976 (24000/1001/189150) FPS
  17. Color space                              : YUV
  18. Chroma subsampling                       : 4:2:0
  19. Bit depth                                : 8 bits
  20. Scan type                                : Progressive
  21. Bits/(Pixel*Frame)                       : 0.232
  22. Stream size                              : 10.1 GiB (88%)
  23. Writing library                          : x264 core 148 r2795M aaa9aa8
  24. Encoding settings                        : cabac=1 / ref=4 / deblock=1:-2:-2 / analyse=0x3:0x113 / me=umh / subme=9 / psy=1 / psy_rd=1.00:0.15 / mixed_ref=1 / me_range=16 / chroma_me=1 / trellis=2 / 8x8dct=1 / cqm=0 / deadzone=21,11 / fast_pskip=1 / chroma_qp_offset=-3 / threads=24 / lookahead_threads=3 / sliced_threads=0 / nr=0 / decimate=1 / interlaced=0 / bluray_compat=0 / constrained_intra=0 / bframes=3 / b_pyramid=2 / b_adapt=1 / b_bias=0 / direct=3 / weightb=1 / open_gop=0 / weightp=2 / keyint=250 / keyint_min=25 / scenecut=40 / intra_refresh=0 / rc_lookahead=50 / rc=2pass / mbtree=1 / bitrate=11500 / ratetol=1.0 / qcomp=0.60 / qpmin=0 / qpmax=69 / qpstep=4 / cplxblur=20.0 / qblur=0.5 / vbv_maxrate=31250 / vbv_bufsize=31250 / nal_hrd=none / filler=0 / ip_ratio=1.40 / aq=1:1.00
  25. Default                                  : Yes
  26. Forced                                   : No
  27. Audio
  28. ID                                       : 2
  29. Format                                   : DTS
  30. Format/Info                              : Digital Theater Systems
  31. Codec ID                                 : A_DTS
  32. Duration                                 : 2 h 6 min
  33. Bit rate mode                            : Constant
  34. Bit rate                                 : 1 509 kb/s
  35. Channel(s)                               : 6 channels
  36. Channel layout                           : C L R Ls Rs LFE
  37. Sampling rate                            : 48.0 kHz
  38. Frame rate                               : 93.750 FPS (512 SPF)
  39. Bit depth                                : 24 bits
  40. Compression mode                         : Lossy
  41. Stream size                              : 1.33 GiB (12%)
  42. Language                                 : English
  43. Default                                  : Yes
  44. Forced                                   : No
  45. Text
  46. ID                                       : 3
  47. Format                                   : UTF-8
  48. Codec ID                                 : S_TEXT/UTF8
  49. Codec ID/Info                            : UTF-8 Plain Text
  50. Duration                                 : 1 h 57 min
  51. Bit rate                                 : 46 b/s
  52. Count of elements                        : 1269
  53. Stream size                              : 40.4 KiB (0%)
  54. Language                                 : English
  55. Default                                  : Yes
  56. Forced                                   : No
  57. Menu
  58. 00:00:00.000                             : en:Chapter 01
  59. 00:02:43.163                             : en:Chapter 02
  60. 00:12:37.548                             : en:Chapter 03
  61. 00:27:03.330                             : en:Chapter 04
  62. 00:36:43.368                             : en:Chapter 05
  63. 00:47:15.833                             : en:Chapter 06
  64. 01:00:34.089                             : en:Chapter 07
  65. 01:12:17.750                             : en:Chapter 08
  66. 01:23:44.436                             : en:Chapter 09
  67. 01:38:34.742                             : en:Chapter 10
  68. 01:54:19.352                             : en:Chapter 11
  69. 02:02:09.614                             : en:Chapter 12
复制代码






                                       
                                       

                                       
                                       
                                       




回复

使用道具 举报

懒得打字嘛,点击右侧快捷回复 【右侧内容,后台自定义】
您需要登录后才可以回帖 登录 | 立即加入

本版积分规则

Archiver|小黑屋| 蓝光电影网 |网站地图

Copyright © 2021 Comsenz Inc. Powered by 蓝光电影网

蓝光电影网

本站内容由用户自主分享和转载自互联网,转载目的在于传递更多信息,并不代表本网赞同其观点和对其真实性负责。

如有侵权、违反国家法律政策行为,请联系我们,我们会第一时间及时清除和处理!

举报反馈邮箱:[email protected]

快速回复 返回顶部 返回列表