找回密码

查看: 1664|回复: 2

[剧情] 熔炉[中文字幕].Silenced.2011.bluray.1080p.HEVC.10bit-MiniHD 1.88GB

[复制链接]
蓝光币
9
发表于 2022-6-14 11:23:23 | 显示全部楼层 |阅读模式
熔炉[中笔墨幕].Silenced.2011.bluray.1080p.HEVC.10bit-MiniHD 1.88GB-1.jpg

◎译  名 熔炉 / 无声呐喊(港) / 漩涡 / Silenced / The Crucible
◎片  名 ???
◎年  代 2011
◎产  地 韩国
◎类  别 剧情
◎语  言 韩语
◎上映日期 2011-09-22(韩国)
◎IMDb链接 https://www.imdb.com/title/tt2070649/
◎豆瓣评分 9.3/10 (857097人评价)
◎豆瓣链接 https://movie.douban.com/subject/5912992/
◎片  长 125分钟
◎导  演 黄东赫 Dong-hyuk Hwang
◎编  剧 黄东赫 Dong-hyuk Hwang
       孔枝泳 Ji-young Gong
◎演  员 孔刘 Yoo Gong
       郑有美 Yu-mi Jung
       金贤秀 Hyun-su Kim
       郑仁絮 In-seo Jeong
       白承焕 Seung-Hwan Baek  (id:1317262)
       张光 Gwang Jang
       金民尚 Kim Min-sang
       林贤成 Hyun-Sung Lim
       金周灵 Joo-ryeong Kim
       严孝燮 Uhm Hyo Sup
       全国焕 Gook-hwan Jeon
       崔镇浩 Jin-ho Choi
       金志映 Jee-young Kim
       严智星 Ji-seong Eom
       许在浩 Heo Jae-ho
       张素妍 So-yeon Jang
        
       金智怜 Ji-Young Kim
        
       张宥 Sang-hee Lee
       朴惠珍 Hye-jin Park
       林贤成 Lim Hyun Sung
       郑亨锡 Jeong Hyeong-seok
       洪锡然 Suk-Youn Hong
       李圣贤 Mowg
       金智龙 Ji-yong Kim
       朴晸培 Jung-bae Park
◎简  介
  来自首尔的哑语美术教员仁浩(孔宥 饰)来到雾津,招聘慈爱聋哑人黉舍。天降大雾,他意外撞车,维修时相逢了人权构造成员柔珍(郑有美 饰)。仁浩妻子早亡,8岁女儿天生哮喘由祖母照看,所以他不辞辛劳谋职养家。但是,双胞胎的校长与教导主任竟逼仁浩索贿5万万韩元。同时,仁浩逐步发现黉舍覆盖着一种严重压制的氛围,使人梗塞。有三个孩子引人关注:聪慧的金妍斗(金贤秀 饰)、贪吃的陈宥利(郑仁絮 饰)和弟弟自杀身亡的全民秀(白承焕 饰),民秀总是满脸淤青。下课后,仁浩还听到女茅厕中有呼喊与抽泣,在门卫的阻止下他未深究。以后。他意外目击了校长行贿差人,教导员毒打民秀,宿导溺罚妍斗的行动。一个惊天的隐蔽被渐渐揭开,真相令韩国震动……                                    
                                本片取材于2005年光州一所聋哑障碍人黉舍的实在事务,改编自韩国作家孔枝泳的同名小说。
◎获奖情况 (共2项)
  第49届韩国电影大钟奖 (2012)
  最好影片(提名)
  最好女配角(提名)
   └──金贤秀
  1. ##### MediaInfo ######
  2. General
  3. Unique ID                                : 233152694568154705984894379670421098249 (0xAF67935B116B2D8FB931E4A6EEC7CF09)
  4. Complete name                            : 熔炉.Silenced.2011.bluray.1080p.HEVC.10bit-MiniHD.mkv
  5. Format                                   : Matroska
  6. Format version                           : Version 4
  7. File size                                : 1.88 GiB
  8. Duration                                 : 2 h 4 min
  9. Overall bit rate                         : 2 156 kb/s
  10. Movie name                               : Silenced.2011.bluray.1080p.HEVC.10bit-DalekW@FRDS
  11. Encoded date                             : UTC 2017-11-29 01:56:58
  12. Writing application                      : mkvmerge v17.0.0 ('Be Ur Friend') 64-bit
  13. Writing library                          : libebml v1.3.5 + libmatroska v1.4.8
  14. Cover                                    : Yes
  15. Attachments                              : cover.jpg
  16. Video
  17. ID                                       : 1
  18. Format                                   : HEVC
  19. Format/Info                              : High Efficiency Video Coding
  20. Format profile                           : Main 10@L4@High
  21. Codec ID                                 : V_MPEGH/ISO/HEVC
  22. Duration                                 : 2 h 4 min
  23. Bit rate                                 : 1 857 kb/s
  24. Width                                    : 1 920 pixels
  25. Height                                   : 816 pixels
  26. Display aspect ratio                     : 2.35:1
  27. Frame rate mode                          : Constant
  28. Frame rate                               : 23.976 (24000/1001/53875) FPS
  29. Color space                              : YUV
  30. Chroma subsampling                       : 4:2:0
  31. Bit depth                                : 10 bits
  32. Bits/(Pixel*Frame)                       : 0.049
  33. Stream size                              : 1.62 GiB (86%)
  34. Writing library                          : x265 2.5+65-a7c2f80c18af:[Windows][MSVC 1911][64 bit] 10bit
  35. Encoding settings                        : cpuid=538751173503 / frame-threads=4 / numa-pools=16 / wpp / no-pmode / no-pme / no-psnr / no-ssim / log-level=2 / input-csp=1 / input-res=1920x816 / interlace=0 / total-frames=0 / level-idc=0 / high-tier=1 / uhd-bd=0 / ref=4 / no-allow-non-conformance / no-repeat-headers / annexb / no-aud / no-hrd / info / hash=0 / no-temporal-layers / no-open-gop / min-keyint=1 / keyint=600 / bframes=8 / b-adapt=2 / b-pyramid / bframe-bias=0 / rc-lookahead=30 / lookahead-slices=4 / NTM4NzU=uuDQuD2mJt9fsCf / scenecut=40 / no-intra-refresh / ctu=64 / min-cu-size=8 / no-rect / no-amp / max-tu-size=32 / tu-inter-depth=2 / tu-intra-depth=2 / limit-tu=4 / rdoq-level=2 / dynamic-rd=0.00 / no-ssim-rd / signhide / no-tskip / nr-intra=0 / nr-inter=0 / no-constrained-intra / no-strong-intra-smoothing / max-merge=3 / limit-refs=2 / limit-modes / me=3 / subme=3 / merange=44 / temporal-mvp / weightp / weightb / no-analyze-src-pics / deblock=-1:-1 / no-sao / no-sao-non-deblock / rd=6 / no-early-skip / rskip / no-fast-intra / no-tskip-fast / no-cu-lossless / b-intra / no-splitrd-skip / rdpenalty=0 / psy-rd=1.80 / psy-rdoq=3.00 / no-rd-refine / analysis-reuse-mode=0 / no-lossless / cbqpoffs=0 / crqpoffs=0 / rc=crf / crf=20.5 / qcomp=0.70 / qpstep=4 / stats-write=0 / stats-read=0 / vbv-maxrate=27000 / vbv-bufsize=27000 / vbv-init=0.9 / crf-max=0.0 / crf-min=0.0 / ipratio=1.40 / pbratio=1.30 / aq-mode=1 / aq-strength=0.80 / cutree / zone-count=0 / no-strict-cbr / qg-size=32 / no-rc-grain / qpmax=69 / qpmin=0 / no-const-vbv / sar=0 / overscan=0 / videoformat=5 / range=0 / colorprim=1 / transfer=2 / colormatrix=2 / chromaloc=0 / display-window=0 / max-cll=0,0 / min-luma=0 / max-luma=1023 / log2-max-poc-lsb=8 / vui-timing-info / vui-hrd-info / slices=1 / no-opt-qp-pps / no-opt-ref-list-length-pps / no-multi-pass-opt-rps / scenecut-bias=0.05 / no-opt-cu-delta-qp / no-aq-motion / no-hdr / no-hdr-opt / no-dhdr10-opt / analysis-reuse-level=5 / scale-factor=0 / refine-intra=0 / refine-inter=0 / refine-mv=0 / no-limit-sao / ctu-info=0 / no-lowpass-dct / refine-mv-type=0 / copy-pic=1
  36. Language                                 : Korean
  37. Default                                  : Yes
  38. Forced                                   : No
  39. Color range                              : Limited
  40. Color primaries                          : BT.709
  41. Audio
  42. ID                                       : 2
  43. Format                                   : Opus
  44. Codec ID                                 : A_OPUS
  45. Duration                                 : 2 h 4 min
  46. Bit rate                                 : 296 kb/s
  47. Channel(s)                               : 6 channels
  48. Channel layout                           : L R C Ls Rs Cb LFE
  49. Sampling rate                            : 48.0 kHz
  50. Frame rate                               : 50.000 FPS (960 SPF)
  51. Compression mode                         : Lossy
  52. Stream size                              : 264 MiB (14%)
  53. Language                                 : Korean
  54. Default                                  : Yes
  55. Forced                                   : No
  56. Text #1
  57. ID                                       : 3
  58. Format                                   : ASS
  59. Codec ID                                 : S_TEXT/ASS
  60. Codec ID/Info                            : Advanced Sub Station Alpha
  61. Duration                                 : 1 h 59 min
  62. Bit rate                                 : 67 b/s
  63. Count of elements                        : 1102
  64. Compression mode                         : Lossless
  65. Stream size                              : 59.2 KiB (0%)
  66. Language                                 : Chinese
  67. Default                                  : Yes
  68. Forced                                   : No
  69. Text #2
  70. ID                                       : 4
  71. Format                                   : UTF-8
  72. Codec ID                                 : S_TEXT/UTF8
  73. Codec ID/Info                            : UTF-8 Plain Text
  74. Duration                                 : 1 h 59 min
  75. Bit rate                                 : 40 b/s
  76. Count of elements                        : 1102
  77. Stream size                              : 35.7 KiB (0%)
  78. Language                                 : Chinese
  79. Default                                  : No
  80. Forced                                   : No
复制代码











回复

使用道具 举报

蓝光币
384
发表于 2022-6-14 14:02:31 | 显示全部楼层
感谢楼主分享精彩的高清剧情大片,支持一下!
回复

使用道具 举报

蓝光币
109
发表于 2022-6-15 15:55:07 | 显示全部楼层
感谢分享 楼主辛苦了 早闻此片大名
回复

使用道具 举报

懒得打字嘛,点击右侧快捷回复 【右侧内容,后台自定义】
您需要登录后才可以回帖 登录 | 立即加入

本版积分规则

Archiver| |网站地图

Copyright © 2024 Comsenz Inc. Powered by 蓝光电影网

本站内容由用户自主分享和转载自互联网,转载目的在于传递更多信息,并不代表本网赞同其观点和对其真实性负责。

如有侵权、违反国家法律政策行为,请联系我们,我们会第一时间及时清除和处理!

举报反馈邮箱:4k1080.com@gmail.com

快速回复 返回顶部 返回列表