找回密码

蓝光电影网

查看: 1756|回复: 48

[2160p] 杰瑞和玛姬生活阔绰 Jerry.Marge.Go.Large.2022.2160p.WEB-DL.x265.10bit.SDR.DDP5.1-SMURF 14.28GB

[复制链接]
蓝光币
886
发表于 2022-6-17 18:21:45 | 显示全部楼层 |阅读模式


◎译  名 杰瑞和玛姬生活阔气 / 杰瑞与玛吉极致吃苦
◎片  名 Jerry and Marge Go Large
◎年  代 2022
◎产  地 美国
◎类  别 剧情 / 笑剧 / 列传
◎语  言 英语
◎上映日期 2022-06-14(翠贝卡电影节) / 2022-06-17(美国收集)
◎IMDb链接 https://www.imdb.com/title/tt8323668/
◎豆瓣链接 https://movie.douban.com/subject/35503077/
◎导  演 大卫·弗兰科尔 David Frankel (id:1000420)
◎编  剧 布拉德·科普兰 Brad Copeland (id:1313140)
◎演  员 布莱恩·科兰斯顿 Bryan Cranston (id:1031807)
       安妮特·贝宁 Annette Bening (id:1017944)
       拉里·威尔莫 Larry Wilmore (id:1301022)
       雷恩·威尔森 Rainn Wilson (id:1004593)
       迈克尔·麦基恩 Michael McKean (id:1027868)
       安娜·坎普 Anna Camp (id:1027171)
       杰克·麦克道曼 Jake McDorman (id:1009382)
       罗达·格里菲丝 Rhoda Griffis (id:1094347)
       梅拉尼·休伯特 Mellanie Hubert (id:1468768)
       安·哈拉达 Ann Harada (id:1091972)
       安娜·科鲁兹·凯恩 Ana Cruz Kayne  (id:1470479)
       罗伯特·普拉尔戈 Robert Pralgo (id:1174082)
       德温·麦克道维尔 Devyn McDowell (id:1461007)
       乔·皮斯托内 Joe Pistone (id:1182499)
       让·克劳德·卢耶 Jean Claude Leuyer (id:1254641)
       林赛·莫泽 Lindsey Moser (id:1397594)
       肯尼·阿方索 Kenny Alfonso (id:1057207)
       苏巴什·曼达尔 Subhash Mandal (id:1454356)
◎简  介

  本片改编自杰森·法冈在《赫芬顿邮报》颁发的文章 ,报告了一桩实在故事:退休的杰瑞·塞尔比发现了马萨诸塞州彩票中的一个数学缝隙,在妻子玛吉的帮助下,赢得了2700万美圆。他们用这笔钱复兴了自己的密歇根小镇。
  1. Video
  2. ID                                       : 1
  3. Format                                   : HEVC
  4. Format/Info                              : High Efficiency Video Coding
  5. Format profile                           : Main [email protected]@High
  6. Codec ID                                 : V_MPEGH/ISO/HEVC
  7. Duration                                 : 1 h 36 min
  8. Bit rate                                 : 20.6 Mb/s
  9. Width                                    : 3 840 pixels
  10. Height                                   : 1 606 pixels
  11. Display aspect ratio                     : 2.40:1
  12. Frame rate mode                          : Constant
  13. Frame rate                               : 23.976 FPS
  14. Color space                              : YUV
  15. Chroma subsampling                       : 4:2:0
  16. Bit depth                                : 10 bits
  17. Bits/(Pixel*Frame)                       : 0.139
  18. Stream size                              : 13.8 GiB (97%)
  19. Default                                  : No
  20. Forced                                   : No
  21. Color range                              : Limited
  22. Color primaries                          : BT.709
  23. Transfer characteristics                 : BT.709
  24. Matrix coefficients                      : BT.709
  25. Audio
  26. ID                                       : 2
  27. Format                                   : E-AC-3
  28. Format/Info                              : Enhanced AC-3
  29. Commercial name                          : Dolby Digital Plus
  30. Codec ID                                 : A_EAC3
  31. Duration                                 : 1 h 36 min
  32. Bit rate mode                            : Constant
  33. Bit rate                                 : 640 kb/s
  34. Channel(s)                               : 6 channels
  35. Channel layout                           : L R C LFE Ls Rs
  36. Sampling rate                            : 48.0 kHz
  37. Frame rate                               : 31.250 FPS (1536 SPF)
  38. Compression mode                         : Lossy
  39. Delay relative to video                  : 18 ms
  40. Stream size                              : 440 MiB (3%)
  41. Language                                 : English
  42. Service kind                             : Complete Main
  43. Default                                  : Yes
  44. Forced                                   : No
  45. Text #1
  46. ID                                       : 3
  47. Format                                   : UTF-8
  48. Codec ID                                 : S_TEXT/UTF8
  49. Codec ID/Info                            : UTF-8 Plain Text
  50. Duration                                 : 1 h 30 min
  51. Bit rate                                 : 72 b/s
  52. Count of elements                        : 1482
  53. Stream size                              : 48.3 KiB (0%)
  54. Language                                 : English
  55. Default                                  : No
  56. Forced                                   : No
  57. Text #2
  58. ID                                       : 4
  59. Format                                   : UTF-8
  60. Codec ID                                 : S_TEXT/UTF8
  61. Codec ID/Info                            : UTF-8 Plain Text
  62. Duration                                 : 1 h 30 min
  63. Bit rate                                 : 79 b/s
  64. Count of elements                        : 1610
  65. Stream size                              : 52.4 KiB (0%)
  66. Title                                    : SDH
  67. Language                                 : English
  68. Default                                  : No
  69. Forced                                   : No
复制代码




                                       
                                       

                                       
                                       
                                       




回复

使用道具 举报

蓝光币
3426
发表于 2022-6-17 18:33:45 | 显示全部楼层

楼主太厉害了!楼主,电影应该很好看我觉得蓝光电影网真是个好地方!
回复 支持 反对

使用道具 举报

蓝光币
196
发表于 2022-6-17 22:49:27 | 显示全部楼层
多谢分享!!!!
回复

使用道具 举报

蓝光币
34
发表于 2022-6-17 23:29:40 | 显示全部楼层
感谢分享!!!
回复

使用道具 举报

蓝光币
83
发表于 2022-6-18 10:05:54 | 显示全部楼层

这个帖子不回对不起自己!我想我是一天也不能离开蓝光电影网。
回复 支持 反对

使用道具 举报

蓝光币
198
发表于 2022-6-18 18:57:39 | 显示全部楼层
感谢分享
回复

使用道具 举报

蓝光币
142
发表于 2022-6-18 20:06:13 | 显示全部楼层
这个真好看 有意思
回复 支持 反对

使用道具 举报

蓝光币
43
发表于 2022-6-18 21:19:50 | 显示全部楼层
楼主发贴辛苦了,谢谢楼主分享!我觉得蓝光电影网是注册对了!
回复 支持 反对

使用道具 举报

蓝光币
77
发表于 2022-6-18 21:46:55 | 显示全部楼层
资源不错
回复

使用道具 举报

蓝光币
34
发表于 2022-6-19 00:18:49 | 显示全部楼层
感谢分享
回复

使用道具 举报

懒得打字嘛,点击右侧快捷回复 【右侧内容,后台自定义】
您需要登录后才可以回帖 登录 | 立即加入

本版积分规则

Archiver|小黑屋| 蓝光电影网 |网站地图

Copyright © 2021 Comsenz Inc. Powered by 蓝光电影网

蓝光电影网

本站内容由用户自主分享和转载自互联网,转载目的在于传递更多信息,并不代表本网赞同其观点和对其真实性负责。

如有侵权、违反国家法律政策行为,请联系我们,我们会第一时间及时清除和处理!

举报反馈邮箱:[email protected]

快速回复 返回顶部 返回列表