找回密码

蓝光电影网

查看: 539|回复: 2

[2160p] 极限困境 Hot.Seat.2022.2160p.WEB-DL.x265.10bit.SDR.DD5.1-CM 8.59GB

[复制链接]
蓝光币
894
发表于 2022-7-1 13:08:30 | 显示全部楼层 |阅读模式


◎标  题 极限窘境
◎译  名 破局 / 炸弹圈套
◎片  名 Hot Seat
◎年  代 2022
◎产  地 美国
◎类  别 惊悚
◎语  言 英语
◎上映日期 2022-07-01(美国)
◎IMDb链接 https://www.imdb.com/title/tt15690300/
◎豆瓣链接 https://movie.douban.com/subject/35629884/
◎导  演 詹姆斯·库伦·布雷萨克 James Cullen Bressack
◎演  员 梅尔·吉布森 Mel Gibson
       莎侬·多赫提 Shannen Doherty
       迈克·韦尔奇 Michael Welch
       凯文·狄龙 Kevin Dillon
       埃迪·斯蒂普斯 Eddie Steeples
       丽迪雅·赫尔 Lydia Hull
       凯特‧卡茨曼 Kate Katzman
       基思·雅各 Keith Jardine
       安娜·哈尔 Anna Harr
       Jonathan Stoddard Jonathan Stoddard
       迪伦·弗拉施纳 Dylan Flashner
       詹姆斯·库伦·布雷萨克 James Cullen Bressack
        Lester G. Reynolds
       查德·迈克尔·墨瑞 Chad Michael Murray
◎简  介

  An ex-hacker is forced to break into high-level banking institutions, another man must try to penetrate the booby trapped building to get the young man off the hot seat.
  1. Video
  2. ID                                       : 1
  3. Format                                   : HEVC
  4. Format/Info                              : High Efficiency Video Coding
  5. Format profile                           : Main [email protected]@High
  6. Codec ID                                 : V_MPEGH/ISO/HEVC
  7. Duration                                 : 1 h 38 min
  8. Bit rate                                 : 12.0 Mb/s
  9. Width                                    : 3 828 pixels
  10. Height                                   : 1 596 pixels
  11. Display aspect ratio                     : 2.40:1
  12. Frame rate mode                          : Constant
  13. Frame rate                               : 23.976 FPS
  14. Color space                              : YUV
  15. Chroma subsampling                       : 4:2:0
  16. Bit depth                                : 10 bits
  17. Bits/(Pixel*Frame)                       : 0.082
  18. Stream size                              : 8.32 GiB (97%)
  19. Language                                 : English
  20. Default                                  : Yes
  21. Forced                                   : No
  22. Color range                              : Limited
  23. Color primaries                          : BT.709
  24. Transfer characteristics                 : BT.709
  25. Matrix coefficients                      : BT.709
  26. Audio
  27. ID                                       : 2
  28. Format                                   : AC-3
  29. Format/Info                              : Audio Coding 3
  30. Commercial name                          : Dolby Digital
  31. Codec ID                                 : A_AC3
  32. Duration                                 : 1 h 38 min
  33. Bit rate mode                            : Constant
  34. Bit rate                                 : 384 kb/s
  35. Channel(s)                               : 6 channels
  36. Channel layout                           : L R C LFE Ls Rs
  37. Sampling rate                            : 48.0 kHz
  38. Frame rate                               : 31.250 FPS (1536 SPF)
  39. Compression mode                         : Lossy
  40. Stream size                              : 272 MiB (3%)
  41. Language                                 : English
  42. Service kind                             : Complete Main
  43. Default                                  : Yes
  44. Forced                                   : No
  45. Text #1
  46. ID                                       : 3
  47. Format                                   : UTF-8
  48. Codec ID                                 : S_TEXT/UTF8
  49. Codec ID/Info                            : UTF-8 Plain Text
  50. Duration                                 : 1 h 35 min
  51. Bit rate                                 : 74 b/s
  52. Count of elements                        : 1534
  53. Stream size                              : 51.8 KiB (0%)
  54. Title                                    : SDH
  55. Language                                 : English
  56. Default                                  : No
  57. Forced                                   : No
  58. Text #2
  59. ID                                       : 4
  60. Format                                   : UTF-8
  61. Codec ID                                 : S_TEXT/UTF8
  62. Codec ID/Info                            : UTF-8 Plain Text
  63. Duration                                 : 1 h 30 min
  64. Bit rate                                 : 72 b/s
  65. Count of elements                        : 1389
  66. Stream size                              : 48.1 KiB (0%)
  67. Language                                 : English
  68. Default                                  : No
  69. Forced                                   : No
  70. Menu
  71. 00:00:00.000                             : Chapter 01
  72. 00:02:14.592                             : Chapter 02
  73. 00:16:50.301                             : Chapter 03
  74. 00:30:55.105                             : Chapter 04
  75. 00:45:15.882                             : Chapter 05
  76. 01:00:13.279                             : Chapter 06
  77. 01:17:12.090                             : Chapter 07
  78. 01:33:19.808                             : Chapter 08
复制代码




                                       
                                       

                                       
                                       
                                       




回复

使用道具 举报

蓝光币
206
发表于 2022-7-2 18:12:58 | 显示全部楼层
楼主发贴辛苦了,谢谢楼主分享!我觉得蓝光电影网是注册对了!
回复 支持 反对

使用道具 举报

蓝光币
33
发表于 2022-7-5 12:11:39 | 显示全部楼层
楼主发贴辛苦了,谢谢楼主分享!我觉得蓝光电影网是注册对了!
回复 支持 反对

使用道具 举报

懒得打字嘛,点击右侧快捷回复 【右侧内容,后台自定义】
您需要登录后才可以回帖 登录 | 立即加入

本版积分规则

Archiver|小黑屋| 蓝光电影网 |网站地图

Copyright © 2021 Comsenz Inc. Powered by 蓝光电影网

蓝光电影网

本站内容由用户自主分享和转载自互联网,转载目的在于传递更多信息,并不代表本网赞同其观点和对其真实性负责。

如有侵权、违反国家法律政策行为,请联系我们,我们会第一时间及时清除和处理!

举报反馈邮箱:[email protected]

快速回复 返回顶部 返回列表