找回密码

蓝光电影网

查看: 167|回复: 7

[剧情] 猎鸟 Birdshot.2016.1080p.BluRay.x264-BiPOLAR 8.55GB

[复制链接]
蓝光币
894
发表于 2022-7-2 10:25:48 | 显示全部楼层 |阅读模式


◎标  题 猎鸟
◎片  名 Birdshot
◎年  代 2016
◎产  地 菲律宾 / 卡塔尔
◎类  别 剧情 / 悬疑 / 惊悚
◎语  言 菲律宾语
◎上映日期 2016-10-28(东京电影节)
◎IMDb评分 6.7/10 (769人评价)
◎IMDb链接 https://www.imdb.com/title/tt6135042/
◎豆瓣评分 6.5/10 (488人评价)
◎豆瓣链接 https://movie.douban.com/subject/26882157/
◎片  长 125分钟
◎导  演 米哈伊尔·瑞德 Mikhail Red
◎编  剧 米哈伊尔·瑞德 Mikhail Red
◎演  员 玛丽·乔伊·阿波斯托 Mary Joy Apostol
       约翰·阿基拉 John Arcilla
       阿诺德雷·耶斯 Arnold Reyes
       米哈伊尔·瑞德 Mikhail Red
◎标  签 菲律宾 / 犯罪 / 人性 / 剧情 / 悬疑 / 惊悚 / 菲律宾电影 / 2016
◎简  介

  该片的导演是年仅24岁米哈伊尔·雷德,影片报告了一个农民的女儿误杀了一向接近灭绝的菲律宾鹰,却把当地政府对盗猎者的观察与追捕指导到了一个加倍可骇的故事。
  1. Video
  2. ID                                       : 1
  3. Format                                   : AVC
  4. Format/Info                              : Advanced Video Codec
  5. Format profile                           : [email protected]
  6. Format settings                          : CABAC / 5 Ref Frames
  7. Format settings, CABAC                   : Yes
  8. Format settings, Reference frames        : 5 frames
  9. Codec ID                                 : V_MPEG4/ISO/AVC
  10. Duration                                 : 1 h 55 min
  11. Bit rate                                 : 6 839 kb/s
  12. Width                                    : 1 920 pixels
  13. Height                                   : 810 pixels
  14. Display aspect ratio                     : 2.40:1
  15. Frame rate mode                          : Constant
  16. Frame rate                               : 23.976 (24000/1001/189150) FPS
  17. Color space                              : YUV
  18. Chroma subsampling                       : 4:2:0
  19. Bit depth                                : 8 bits
  20. Scan type                                : Progressive
  21. Bits/(Pixel*Frame)                       : 0.183
  22. Stream size                              : 5.54 GiB (65%)
  23. Writing library                          : x264 core 164 r3095 baee400
  24. Encoding settings                        : cabac=1 / ref=5 / deblock=1:-3:-3 / analyse=0x3:0x133 / me=umh / subme=10 / psy=1 / psy_rd=1.00:0.15 / mixed_ref=1 / me_range=24 / chroma_me=1 / trellis=2 / 8x8dct=1 / cqm=0 / deadzone=21,11 / fast_pskip=1 / chroma_qp_offset=-3 / threads=18 / lookahead_threads=3 / sliced_threads=0 / nr=0 / decimate=1 / interlaced=0 / bluray_compat=0 / constrained_intra=0 / bframes=8 / b_pyramid=2 / b_adapt=2 / b_bias=0 / direct=3 / weightb=1 / open_gop=0 / weightp=2 / keyint=250 / keyint_min=23 / scenecut=40 / intra_refresh=0 / rc_lookahead=60 / rc=crf / mbtree=1 / crf=16.0 / qcomp=0.60 / qpmin=0 / qpmax=69 / qpstep=4 / ip_ratio=1.40 / aq=3:0.60
  25. Language                                 : English
  26. Default                                  : Yes
  27. Forced                                   : No
  28. Color range                              : Limited
  29. Matrix coefficients                      : BT.709

  30. Audio
  31. ID                                       : 2
  32. Format                                   : DTS XLL
  33. Format/Info                              : Digital Theater Systems
  34. Commercial name                          : DTS-HD Master Audio
  35. Codec ID                                 : A_DTS
  36. Duration                                 : 1 h 55 min
  37. Bit rate mode                            : Variable
  38. Bit rate                                 : 3 706 kb/s
  39. Channel(s)                               : 6 channels
  40. Channel layout                           : C L R Ls Rs LFE
  41. Sampling rate                            : 48.0 kHz
  42. Frame rate                               : 93.750 FPS (512 SPF)
  43. Bit depth                                : 24 bits
  44. Compression mode                         : Lossless
  45. Stream size                              : 3.00 GiB (35%)
  46. Language                                 : Tagalog
  47. Default                                  : Yes
  48. Forced                                   : No

  49. Text #1
  50. ID                                       : 3
  51. Format                                   : UTF-8
  52. Codec ID                                 : S_TEXT/UTF8
  53. Codec ID/Info                            : UTF-8 Plain Text
  54. Duration                                 : 1 h 41 min
  55. Bit rate                                 : 30 b/s
  56. Count of elements                        : 775
  57. Stream size                              : 23.0 KiB (0%)
  58. Title                                    : English
  59. Language                                 : English
  60. Default                                  : Yes
  61. Forced                                   : Yes

  62. Text #2
  63. ID                                       : 4
  64. Format                                   : UTF-8
  65. Codec ID                                 : S_TEXT/UTF8
  66. Codec ID/Info                            : UTF-8 Plain Text
  67. Duration                                 : 1 h 41 min
  68. Bit rate                                 : 34 b/s
  69. Count of elements                        : 831
  70. Stream size                              : 25.4 KiB (0%)
  71. Title                                    : Filipino
  72. Language                                 : fil
  73. Default                                  : No
  74. Forced                                   : No

  75. Text #3
  76. ID                                       : 5
  77. Format                                   : UTF-8
  78. Codec ID                                 : S_TEXT/UTF8
  79. Codec ID/Info                            : UTF-8 Plain Text
  80. Duration                                 : 1 h 49 min
  81. Bit rate                                 : 29 b/s
  82. Count of elements                        : 819
  83. Stream size                              : 24.0 KiB (0%)
  84. Title                                    : French
  85. Language                                 : French
  86. Default                                  : No
  87. Forced                                   : No

  88. Text #4
  89. ID                                       : 6
  90. Format                                   : PGS
  91. Muxing mode                              : zlib
  92. Codec ID                                 : S_HDMV/PGS
  93. Codec ID/Info                            : Picture based subtitle format used on BDs/HD-DVDs
  94. Duration                                 : 1 h 49 min
  95. Bit rate                                 : 6 413 b/s
  96. Count of elements                        : 1474
  97. Stream size                              : 5.03 MiB (0%)
  98. Title                                    : French
  99. Language                                 : French
  100. Default                                  : No
  101. Forced                                   : No

  102. Text #5
  103. ID                                       : 7
  104. Format                                   : UTF-8
  105. Codec ID                                 : S_TEXT/UTF8
  106. Codec ID/Info                            : UTF-8 Plain Text
  107. Duration                                 : 1 h 48 min
  108. Bit rate                                 : 29 b/s
  109. Count of elements                        : 789
  110. Stream size                              : 23.1 KiB (0%)
  111. Title                                    : Spanish
  112. Language                                 : Spanish
  113. Default                                  : No
  114. Forced                                   : No

  115. Menu
  116. 00:00:00.000                             : en:00:00:00.000
  117. 00:07:55.266                             : en:00:07:55.266
  118. 00:16:20.813                             : en:00:16:20.813
  119. 00:28:34.922                             : en:00:28:34.922
  120. 00:38:16.002                             : en:00:38:16.002
  121. 00:46:00.883                             : en:00:46:00.883
  122. 00:52:55.923                             : en:00:52:55.923
  123. 01:01:58.673                             : en:01:01:58.673
  124. 01:13:11.971                             : en:01:13:11.971
  125. 01:20:58.812                             : en:01:20:58.812
  126. 01:28:29.387                             : en:01:28:29.387
  127. 01:41:45.683                             : en:01:41:45.683
  128. 01:48:33.048                             : en:01:48:33.048
复制代码




                                       
                                       

                                       
                                       
                                       




回复

使用道具 举报

蓝光币
92
发表于 2022-7-2 10:59:13 | 显示全部楼层
谢谢分享
回复

使用道具 举报

蓝光币
138
发表于 2022-7-2 11:57:33 | 显示全部楼层

楼主太厉害了!楼主,电影应该很好看我觉得蓝光电影网真是个好地方!
回复 支持 反对

使用道具 举报

蓝光币
97
发表于 2022-7-2 17:44:16 | 显示全部楼层
楼主发贴辛苦了,谢谢楼主分享!我觉得蓝光电影网是注册对了!
回复 支持 反对

使用道具 举报

蓝光币
272
发表于 2022-7-2 19:01:59 | 显示全部楼层

这东西我收了!谢谢楼主!蓝光电影网真好!
回复 支持 反对

使用道具 举报

蓝光币
100
发表于 2022-7-2 21:39:10 | 显示全部楼层
楼主发贴辛苦了,谢谢楼主分享!我觉得蓝光电影网是注册对了!
回复 支持 反对

使用道具 举报

蓝光币
82
发表于 2022-7-2 23:30:58 | 显示全部楼层

楼主太厉害了!楼主,电影应该很好看我觉得蓝光电影网真是个好地方!
回复 支持 反对

使用道具 举报

蓝光币
6
发表于 2022-7-3 02:08:21 | 显示全部楼层
谢谢楼主分享
回复 支持 反对

使用道具 举报

懒得打字嘛,点击右侧快捷回复 【右侧内容,后台自定义】
您需要登录后才可以回帖 登录 | 立即加入

本版积分规则

Archiver|小黑屋| 蓝光电影网 |网站地图

Copyright © 2021 Comsenz Inc. Powered by 蓝光电影网

蓝光电影网

本站内容由用户自主分享和转载自互联网,转载目的在于传递更多信息,并不代表本网赞同其观点和对其真实性负责。

如有侵权、违反国家法律政策行为,请联系我们,我们会第一时间及时清除和处理!

举报反馈邮箱:[email protected]

快速回复 返回顶部 返回列表