找回密码

查看: 1922|回复: 0

[剧情] 宝贝计划[国粤多音轨/简繁英字幕].Rob.B.Hood.2006.BluRay.1080p.x265.10bit.2Audio-MiniHD 8.31GB

[复制链接]
蓝光币
8
发表于 2022-7-17 01:03:12 | 显示全部楼层 |阅读模式


◎标  题 宝贝计划
◎译  名 BB计划 / Rob-B-Hood / Robin-B-Hood / Bo bui gai wak
◎片  名 寶貝計劃
◎年  代 2006
◎产  地 中国香港 / 中国大陆
◎类  别 剧情 / 笑剧 / 行动
◎语  言 汉语普通话 / 粤语
◎上映日期 2006-09-28(中国大陆) / 2006-09-29(中国香港) / 2006-09-08(威尼斯电影节)
◎IMDb评分 6.6/10 (14474人评价)
◎IMDb链接 https://www.imdb.com/title/tt0485976/
◎豆瓣评分 7.5/10 (394840人评价)
◎豆瓣链接 https://movie.douban.com/subject/1859036/
◎片  长 125分钟
◎导  演 陈木胜 Benny Chan
◎编  剧 袁锦麟 Alan Yuen
       成龙 Jackie Chan
       陈木胜 Benny Chan
◎演  员 成龙 Jackie Chan
       古天乐 Louis Koo
       蔡志强 Matthew Medvedev
       许冠文 Michael Koon Man Hui
       蔡卓妍 Charlene Choi
       高圆圆 Yuanyuan Gao
       陈宝国 Baoguo Chen
       元彪 Biao Yuen
       余安安 On-on Yu
       吴彦祖 Daniel Wu
       谢霆锋 Nicholas Tse
       林家栋 Ka Tung Lam
       许绍雄 Siu-Hung Hui
       应采儿 Cherrie Ying
       尹子维 Terence Yin
       连凯 Andrew Lin
       谷峰 Feng Ku
       卢惠光 Ken Lo
       梁敏仪 Winnie Leung
       樋口明日嘉 Asuka Higuchi
       叶山豪 Hayama Go
       何华超 Tony Ho
       蒋雅文 Mandy Chiang
       张同祖 Tung Cho Cheung
       杜丽莎 Teresa Carpio
       王合喜 Ken Wong
       陈子聪 Conroy Chan
       李日朗 Yat-long Li
       雷珊 Lisa Selesner
       黄文慧 Man-Wai Wong
       李忠志 Chung Chi Li
       黄毓民 Yuk-Man Wong
       徐志雄 Terence Tsui
       许思敏 Si Man Hui
       方志驹 Vernon Fong
       利沙华 Courtney Wu
       韩春 Chun Han
       黄金棠 Kam-Tong Wong
       黄燕强 Wong Yin Keung
       成龙 Jackie Chan
       王中磊 Zhonglei Wang
       杨受成 Albert Yeung
       王中军 Zhongjun Wang
       陈自强 Willie Chan
       苏志鸿 Solon So
       陈木胜 Benny Chan
       陈辉阳 Fai Young Chan
       潘耀明 Anthony Pun
       邱志伟 Chi Wai Yau
       赵崇邦 Sung Pong Choo
       王晶晶 Wong Ching Ching
       庄志良 Thomas Chong
       蔡彦菁 Maggie Choy
       黄宏达 Victor Wong
       黄宏显 Eddy Wong
       何志辉 Brian Ho
       曹展能 David Tso
       李忠志 Chung Chi Li
       曾景祥 Kinson Tsang
◎简  介
  故事围绕一个刚诞生的宝宝起头。人字拖(成龙 饰)虽有非凡的身手,可是整天沉迷赌博毫无人生方针,便与包租公(许冠文 饰)、八达通(古天乐 饰)一路爆窃,干着鬼鬼祟祟的犯罪事。城中女富豪(余安安 饰)唯一的孙子诞生后,包租公受不了金钱的引诱,答应把宝宝偷给黑帮老迈,以证实BB能否自 己死去的儿子与前女友的孩子。                                    
                                成功偷得孩子后,连续串发生的工作,使人字拖及八达通改变了自己的人生看法。人字拖起头关心家人,八达通也看到了自己妻子(蔡卓妍 饰)的不易,起头重新做人。 在包租公及黑势利的威胁下,他们还是要把偷来的BB交出来,到底又会发生些什么事,故事有会否大团圆终局呢?
  1. ##### MediaInfo ######
  2. General
  3. Unique ID                                : 172446632356179048835729271884743958560 (0x81BC03680B82F29E5BC5D9533F03E020)
  4. Complete name                            : Rob.B.Hood.2006.BluRay.1080p.x265.10bit.2Audio-MiniHD.mkv
  5. Format                                   : Matroska
  6. Format version                           : Version 4
  7. File size                                : 8.31 GiB
  8. Duration                                 : 2 h 15 min
  9. Overall bit rate                         : 8 793 kb/s
  10. Encoded date                             : UTC 2018-09-18 17:39:45
  11. Writing application                      : mkvmerge v20.0.0 ('I Am The Sun') 64-bit
  12. Writing library                          : libebml v1.3.5 + libmatroska v1.4.8
  13. Video
  14. ID                                       : 1
  15. Format                                   : HEVC
  16. Format/Info                              : High Efficiency Video Coding
  17. Format profile                           : Main 10@L4@Main
  18. Codec ID                                 : V_MPEGH/ISO/HEVC
  19. Duration                                 : 2 h 15 min
  20. Bit rate                                 : 6 469 kb/s
  21. Width                                    : 1 920 pixels
  22. Height                                   : 820 pixels
  23. Display aspect ratio                     : 2.35:1
  24. Frame rate mode                          : Constant
  25. Frame rate                               : 24.000 FPS
  26. Color space                              : YUV
  27. Chroma subsampling                       : 4:2:0
  28. Bit depth                                : 10 bits
  29. Bits/(Pixel*Frame)                       : 0.171
  30. Stream size                              : 6.11 GiB (74%)
  31. Writing library                          : x265 2.8+1-478bfe2b7673:[Windows][GCC 7.3.0][64 bit] 10bit
  32. Encoding settings                        : cpuid=538751111039 / frame-threads=4 / numa-pools=16 / wpp / no-pmode / no-pme / no-psnr / no-ssim / log-level=2 / csv / csv-log-level=0 / input-csp=1 / input-res=1920x820 / interlace=0 / total-frames=194766 / level-idc=0 / high-tier=1 / uhd-bd=0 / ref=5 / no-allow-non-conformance / no-repeat-headers / annexb / no-aud / no-hrd / info / hash=0 / no-temporal-layers / no-open-gop / min-keyint=1 / keyint=360 / gop-lookahead=0 / bframes=9 / b-adapt=2 / b-pyramid / bframe-bias=0 / rc-lookahead=60 / lookahead-slices=4 / NTM4NzU=uuDQuD2mJt9fsCf / scenecut=40 / radl=0 / no-intra-refresh / ctu=32 / min-cu-size=8 / rect / no-amp / max-tu-size=16 / tu-inter-depth=2 / tu-intra-depth=2 / limit-tu=4 / rdoq-level=1 / dynamic-rd=0.00 / ssim-rd / signhide / no-tskip / nr-intra=0 / nr-inter=0 / no-constrained-intra / no-strong-intra-smoothing / max-merge=3 / limit-refs=2 / limit-modes / me=3 / subme=5 / merange=25 / temporal-mvp / weightp / weightb / no-analyze-src-pics / deblock=-1:-1 / no-sao / no-sao-non-deblock / rd=4 / no-early-skip / rskip / no-fast-intra / no-tskip-fast / no-cu-lossless / b-intra / no-splitrd-skip / rdpenalty=1 / psy-rd=0.00 / psy-rdoq=5.00 / no-rd-refine / no-lossless / cbqpoffs=-2 / crqpoffs=-2 / rc=crf / crf=19.5 / qcomp=0.70 / qpstep=4 / stats-write=0 / stats-read=0 / ipratio=1.40 / pbratio=1.30 / aq-mode=1 / aq-strength=0.80 / cutree / zone-count=0 / no-strict-cbr / qg-size=16 / no-rc-grain / qpmax=69 / qpmin=0 / no-const-vbv / sar=0 / overscan=0 / videoformat=5 / range=0 / colorprim=1 / transfer=2 / colormatrix=2 / chromaloc=0 / display-window=0 / max-cll=0,0 / min-luma=0 / max-luma=1023 / log2-max-poc-lsb=8 / vui-timing-info / vui-hrd-info / slices=1 / no-opt-qp-pps / no-opt-ref-list-length-pps / no-multi-pass-opt-rps / scenecut-bias=0.05 / no-opt-cu-delta-qp / no-aq-motion / no-hdr / no-hdr-opt / no-dhdr10-opt / no-idr-recovery-sei / analysis-reuse-level=5 / scale-factor=0 / refine-intra=0 / refine-inter=0 / refine-mv=0 / no-limit-sao / ctu-info=0 / no-lowpass-dct / refine-mv-type=0 / copy-pic=1 / max-ausize-factor=1.0 / no-dynamic-refine / no-single-sei
  33. Language                                 : Chinese
  34. Default                                  : Yes
  35. Forced                                   : No
  36. Color range                              : Limited
  37. Color primaries                          : BT.709
  38. Audio #1
  39. ID                                       : 2
  40. Format                                   : DTS
  41. Format/Info                              : Digital Theater Systems
  42. Codec ID                                 : A_DTS
  43. Duration                                 : 2 h 15 min
  44. Bit rate mode                            : Constant
  45. Bit rate                                 : 1 509 kb/s
  46. Channel(s)                               : 6 channels
  47. Channel layout                           : C L R Ls Rs LFE
  48. Sampling rate                            : 48.0 kHz
  49. Frame rate                               : 93.750 FPS (512 SPF)
  50. Bit depth                                : 24 bits
  51. Compression mode                         : Lossy
  52. Stream size                              : 1.43 GiB (17%)
  53. Title                                    : 粤语
  54. Language                                 : Chinese
  55. Default                                  : Yes
  56. Forced                                   : No
  57. Audio #2
  58. ID                                       : 3
  59. Format                                   : AC-3
  60. Format/Info                              : Audio Coding 3
  61. Commercial name                          : Dolby Digital
  62. Codec ID                                 : A_AC3
  63. Duration                                 : 2 h 15 min
  64. Bit rate mode                            : Constant
  65. Bit rate                                 : 640 kb/s
  66. Channel(s)                               : 6 channels
  67. Channel layout                           : L R C LFE Ls Rs
  68. Sampling rate                            : 48.0 kHz
  69. Frame rate                               : 31.250 FPS (1536 SPF)
  70. Compression mode                         : Lossy
  71. Stream size                              : 619 MiB (7%)
  72. Title                                    : 国语
  73. Language                                 : Chinese
  74. Service kind                             : Complete Main
  75. Default                                  : No
  76. Forced                                   : No
  77. Text #1
  78. ID                                       : 4
  79. Format                                   : PGS
  80. Muxing mode                              : zlib
  81. Codec ID                                 : S_HDMV/PGS
  82. Codec ID/Info                            : Picture based subtitle format used on BDs/HD-DVDs
  83. Title                                    : 繁体
  84. Language                                 : Chinese
  85. Default                                  : Yes
  86. Forced                                   : No
  87. Text #2
  88. ID                                       : 5
  89. Format                                   : PGS
  90. Muxing mode                              : zlib
  91. Codec ID                                 : S_HDMV/PGS
  92. Codec ID/Info                            : Picture based subtitle format used on BDs/HD-DVDs
  93. Title                                    : 简体
  94. Language                                 : Chinese
  95. Default                                  : No
  96. Forced                                   : No
  97. Text #3
  98. ID                                       : 6
  99. Format                                   : PGS
  100. Muxing mode                              : zlib
  101. Codec ID                                 : S_HDMV/PGS
  102. Codec ID/Info                            : Picture based subtitle format used on BDs/HD-DVDs
  103. Title                                    : 英文
  104. Language                                 : English
  105. Default                                  : No
  106. Forced                                   : No
  107. Menu
  108. 00:00:00.000                             : en:Chapter 01
  109. 00:15:38.958                             : en:Chapter 02
  110. 00:21:45.041                             : en:Chapter 03
  111. 00:29:03.458                             : en:Chapter 04
  112. 00:42:45.250                             : en:Chapter 05
  113. 00:53:47.375                             : en:Chapter 06
  114. 01:01:24.833                             : en:Chapter 07
  115. 01:08:15.916                             : en:Chapter 08
  116. 01:28:05.750                             : en:Chapter 09
  117. 01:44:28.916                             : en:Chapter 10
  118. 01:57:18.625                             : en:Chapter 11
  119. 02:06:42.166                             : en:Chapter 12
复制代码
















保举请利用qBittorrent,utorrent,transmission等标准BT软件下载!以获得最快速度。奉求保种!





回复

使用道具 举报

懒得打字嘛,点击右侧快捷回复 【右侧内容,后台自定义】
您需要登录后才可以回帖 登录 | 立即加入

本版积分规则

Copyright © 2024 Comsenz Inc. Powered by 蓝光电影网

本站内容由用户自主分享和转载自互联网,转载目的在于传递更多信息,并不代表本网赞同其观点和对其真实性负责。

如有侵权、违反国家法律政策行为,请联系我们,我们会第一时间及时清除和处理!

举报反馈邮箱:4k1080.com@gmail.com

快速回复 返回顶部 返回列表