找回密码

查看: 2342|回复: 0

[剧情] 特务迷城[国粤多音轨/简繁英字幕].The.Accidental.Spy.2001.BluRay.1080p.x265.10bit.2Audio-MiniHD 6.75GB

[复制链接]
蓝光币
8
发表于 2022-7-17 01:05:38 | 显示全部楼层 |阅读模式


◎标  题 特务迷城
◎译  名 The Accidental Spy / Espion Amateur
◎片  名 特務迷城
◎年  代 2001
◎产  地 中国香港
◎类  别 笑剧 / 行动 / 惊悚
◎语  言 粤语 / 普通话 / 英语 / 法语 / 土耳其语 / 韩语
◎上映日期 2001-01-18
◎IMDb评分 5.9/10 (17139人评价)
◎IMDb链接 https://www.imdb.com/title/tt0271946/
◎豆瓣评分 6.6/10 (25924人评价)
◎豆瓣链接 https://movie.douban.com/subject/1302242/
◎片  长 108 分钟
◎导  演 陈德森 Teddy Chan
◎编  剧 岸西 Ivy Ho
◎演  员 成龙 Jackie Chan
       金玟 Min Kim
       曾志伟 Eric Tsang
       张达明 Tat-Ming Cheung
       孙佳君 Paulyn Sun
       张坚庭 Alfred Cheung
       潘恒生 Hang-Sang Poon
       夏萍 Ping Ha
       蔡业信 Raven Choi Yip-San
       谷德昭 Vincent Kok
       吴兴国 Hsing-kuo Wu
       Paul Andreovski Paul Andreovski
       斯科特·阿金斯 Scott Adkins
       何嘉莉 Lillian Ho
       朱茵 Athena Chu
       布拉德利·詹姆斯·艾伦 Bradley James Allan
       格洛里·西蒙 Glory Simon
       Didem Erol Didem Erol
       张智尧 Kennth Chang
       Mustafa Presheva Mustafa Presheva
       成龙 Jackie Chan
       陈锡康 David Chan
       许月珍 Jojo Hui Yuet-chun
       邹文怀 Raymond Chow
       梁凤英 Candy Leung
       金培达 Peter Kam
       黄永久 Wing-Hung Wong
       邝志良 Chi-Leung Kwong
       黄锐民 Oliver Wong
       麦国强 Kenneth Mak
       陈顾方 Shirley Chan
       文润铃 Yun-Ling Man
       许月珍 Jojo Hui Yuet-chun
       马文现 Stephen Ma
       邓为钰 Wai-Yuk Tang
       董玮 Wai Tung
       曾景祥 Kinson Tsang
◎标  签 成龙 / 行动 / 香港 / 香港电影 / 徐若瑄 / 笑剧 / 2001 / 特务迷城
◎简  介
  从小习武的健身器械店营业员小北(成龙)有奇异的预见才能,胡想有天成为特务。凭仗预见及身手,小北将掠夺银行的劫匪就地拘系,成为消息人物,引来私人侦察的留意,思疑他能够是其韩国客户朴元正失散多年的儿子,决议带他去见朴元正的律师。猎奇心驱使,小北决议跟从律师到韩国寻觅身世之谜,不想刚与朴元正碰头对方就过世。                                    
                                从美国某周刊女记者福喜(金玫)口中,小北知晓朴氏佳耦本为著名的两重特务,遵守着朴元正的绝笔,小北在福喜的帮助下又来到土耳其找到了一笔鉅款,并相逢了奥秘女子咏(徐若瑄)。自得失色之际,小北起头遭受连续串稀里糊涂的攻击,令他意想到身旁早已危机四伏。
  1. ##### MediaInfo ######
  2. General
  3. Unique ID                                : 57220428992379427367377162263501417160 (0x2B0C40F697CF7059925F72473AEB2AC8)
  4. Complete name                            : The.Accidental.Spy.2001.BluRay.1080p.x265.10bit.2Audio-MiniHD.mkv
  5. Format                                   : Matroska
  6. Format version                           : Version 4
  7. File size                                : 6.75 GiB
  8. Duration                                 : 1 h 47 min
  9. Overall bit rate                         : 8 978 kb/s
  10. Encoded date                             : UTC 2018-09-18 17:57:49
  11. Writing application                      : mkvmerge v20.0.0 ('I Am The Sun') 64-bit
  12. Writing library                          : libebml v1.3.5 + libmatroska v1.4.8
  13. Video
  14. ID                                       : 1
  15. Format                                   : HEVC
  16. Format/Info                              : High Efficiency Video Coding
  17. Format profile                           : Main 10@L4@Main
  18. Codec ID                                 : V_MPEGH/ISO/HEVC
  19. Duration                                 : 1 h 47 min
  20. Bit rate                                 : 7 037 kb/s
  21. Width                                    : 1 920 pixels
  22. Height                                   : 818 pixels
  23. Display aspect ratio                     : 2.35:1
  24. Frame rate mode                          : Constant
  25. Frame rate                               : 24.000 FPS
  26. Color space                              : YUV
  27. Chroma subsampling                       : 4:2:0
  28. Bit depth                                : 10 bits
  29. Bits/(Pixel*Frame)                       : 0.187
  30. Stream size                              : 5.29 GiB (78%)
  31. Writing library                          : x265 2.8+1-478bfe2b7673:[Windows][GCC 7.3.0][64 bit] 10bit
  32. Encoding settings                        : cpuid=538751111039 / frame-threads=4 / numa-pools=16 / wpp / no-pmode / no-pme / no-psnr / no-ssim / log-level=2 / csv / csv-log-level=0 / input-csp=1 / input-res=1920x818 / interlace=0 / total-frames=154944 / level-idc=0 / high-tier=1 / uhd-bd=0 / ref=5 / no-allow-non-conformance / no-repeat-headers / annexb / no-aud / no-hrd / info / hash=0 / no-temporal-layers / no-open-gop / min-keyint=1 / keyint=360 / gop-lookahead=0 / bframes=9 / b-adapt=2 / b-pyramid / bframe-bias=0 / rc-lookahead=60 / lookahead-slices=4 / NTM4NzU=uuDQuD2mJt9fsCf / scenecut=40 / radl=0 / no-intra-refresh / ctu=32 / min-cu-size=8 / rect / no-amp / max-tu-size=16 / tu-inter-depth=2 / tu-intra-depth=2 / limit-tu=4 / rdoq-level=1 / dynamic-rd=0.00 / ssim-rd / signhide / no-tskip / nr-intra=0 / nr-inter=0 / no-constrained-intra / no-strong-intra-smoothing / max-merge=3 / limit-refs=2 / limit-modes / me=3 / subme=5 / merange=25 / temporal-mvp / weightp / weightb / no-analyze-src-pics / deblock=-1:-1 / no-sao / no-sao-non-deblock / rd=4 / no-early-skip / rskip / no-fast-intra / no-tskip-fast / no-cu-lossless / b-intra / no-splitrd-skip / rdpenalty=1 / psy-rd=0.00 / psy-rdoq=5.00 / no-rd-refine / no-lossless / cbqpoffs=-2 / crqpoffs=-2 / rc=crf / crf=18.0 / qcomp=0.70 / qpstep=4 / stats-write=0 / stats-read=0 / ipratio=1.40 / pbratio=1.30 / aq-mode=1 / aq-strength=0.80 / cutree / zone-count=0 / no-strict-cbr / qg-size=16 / no-rc-grain / qpmax=69 / qpmin=0 / no-const-vbv / sar=0 / overscan=0 / videoformat=5 / range=0 / colorprim=1 / transfer=2 / colormatrix=2 / chromaloc=0 / display-window=0 / max-cll=0,0 / min-luma=0 / max-luma=1023 / log2-max-poc-lsb=8 / vui-timing-info / vui-hrd-info / slices=1 / no-opt-qp-pps / no-opt-ref-list-length-pps / no-multi-pass-opt-rps / scenecut-bias=0.05 / no-opt-cu-delta-qp / no-aq-motion / no-hdr / no-hdr-opt / no-dhdr10-opt / no-idr-recovery-sei / analysis-reuse-level=5 / scale-factor=0 / refine-intra=0 / refine-inter=0 / refine-mv=0 / no-limit-sao / ctu-info=0 / no-lowpass-dct / refine-mv-type=0 / copy-pic=1 / max-ausize-factor=1.0 / no-dynamic-refine / no-single-sei
  33. Language                                 : Chinese
  34. Default                                  : Yes
  35. Forced                                   : No
  36. Color range                              : Limited
  37. Color primaries                          : BT.709
  38. Audio #1
  39. ID                                       : 2
  40. Format                                   : DTS
  41. Format/Info                              : Digital Theater Systems
  42. Codec ID                                 : A_DTS
  43. Duration                                 : 1 h 47 min
  44. Bit rate mode                            : Constant
  45. Bit rate                                 : 1 509 kb/s
  46. Channel(s)                               : 6 channels
  47. Channel layout                           : C L R Ls Rs LFE
  48. Sampling rate                            : 48.0 kHz
  49. Frame rate                               : 93.750 FPS (512 SPF)
  50. Bit depth                                : 24 bits
  51. Compression mode                         : Lossy
  52. Stream size                              : 1.13 GiB (17%)
  53. Title                                    : 粤语
  54. Language                                 : Chinese
  55. Default                                  : Yes
  56. Forced                                   : No
  57. Audio #2
  58. ID                                       : 3
  59. Format                                   : AAC LC
  60. Format/Info                              : Advanced Audio Codec Low Complexity
  61. Codec ID                                 : A_AAC-2
  62. Duration                                 : 1 h 47 min
  63. Bit rate                                 : 395 kb/s
  64. Channel(s)                               : 6 channels
  65. Channel layout                           : C L R Ls Rs LFE
  66. Sampling rate                            : 48.0 kHz
  67. Frame rate                               : 46.875 FPS (1024 SPF)
  68. Compression mode                         : Lossy
  69. Delay relative to video                  : 20 ms
  70. Stream size                              : 304 MiB (4%)
  71. Title                                    : 国语
  72. Language                                 : Chinese
  73. Default                                  : No
  74. Forced                                   : No
  75. Text #1
  76. ID                                       : 4
  77. Format                                   : PGS
  78. Muxing mode                              : zlib
  79. Codec ID                                 : S_HDMV/PGS
  80. Codec ID/Info                            : Picture based subtitle format used on BDs/HD-DVDs
  81. Duration                                 : 1 h 45 min
  82. Bit rate                                 : 24.0 kb/s
  83. Count of elements                        : 2144
  84. Stream size                              : 18.1 MiB (0%)
  85. Title                                    : 繁体
  86. Language                                 : Chinese
  87. Default                                  : Yes
  88. Forced                                   : No
  89. Text #2
  90. ID                                       : 5
  91. Format                                   : PGS
  92. Muxing mode                              : zlib
  93. Codec ID                                 : S_HDMV/PGS
  94. Codec ID/Info                            : Picture based subtitle format used on BDs/HD-DVDs
  95. Duration                                 : 1 h 45 min
  96. Bit rate                                 : 23.3 kb/s
  97. Count of elements                        : 2144
  98. Stream size                              : 17.5 MiB (0%)
  99. Title                                    : 简体
  100. Language                                 : Chinese
  101. Default                                  : No
  102. Forced                                   : No
  103. Text #3
  104. ID                                       : 6
  105. Format                                   : PGS
  106. Muxing mode                              : zlib
  107. Codec ID                                 : S_HDMV/PGS
  108. Codec ID/Info                            : Picture based subtitle format used on BDs/HD-DVDs
  109. Duration                                 : 1 h 45 min
  110. Bit rate                                 : 20.3 kb/s
  111. Count of elements                        : 2125
  112. Stream size                              : 15.2 MiB (0%)
  113. Title                                    : 英文
  114. Language                                 : English
  115. Default                                  : No
  116. Forced                                   : No
  117. Menu
  118. 00:00:00.000                             : :Chapter 01
  119. 00:07:13.000                             : :Chapter 02
  120. 00:11:37.000                             : :Chapter 03
  121. 00:16:00.500                             : :Chapter 04
  122. 00:21:06.000                             : :Chapter 05
  123. 00:26:30.000                             : :Chapter 06
  124. 00:34:36.000                             : :Chapter 07
  125. 00:40:18.000                             : :Chapter 08
  126. 00:43:22.000                             : :Chapter 09
  127. 00:49:40.000                             : :Chapter 10
  128. 00:55:30.000                             : :Chapter 11
  129. 01:00:21.000                             : :Chapter 12
  130. 01:06:45.000                             : :Chapter 13
  131. 01:12:05.000                             : :Chapter 14
  132. 01:17:17.000                             : :Chapter 15
  133. 01:23:33.000                             : :Chapter 16
  134. 01:28:10.000                             : :Chapter 17
  135. 01:33:34.000                             : :Chapter 18
  136. 01:41:01.000                             : :Chapter 19
  137. 01:44:00.000                             : :Chapter 20
复制代码
















保举请利用qBittorrent,utorrent,transmission等标准BT软件下载!以获得最快速度。奉求保种!





回复

使用道具 举报

懒得打字嘛,点击右侧快捷回复 【右侧内容,后台自定义】
您需要登录后才可以回帖 登录 | 立即加入

本版积分规则

Archiver| |网站地图

Copyright © 2024 Comsenz Inc. Powered by 蓝光电影网

本站内容由用户自主分享和转载自互联网,转载目的在于传递更多信息,并不代表本网赞同其观点和对其真实性负责。

如有侵权、违反国家法律政策行为,请联系我们,我们会第一时间及时清除和处理!

举报反馈邮箱:4k1080.com@gmail.com

快速回复 返回顶部 返回列表