找回密码

查看: 1888|回复: 2

[2160p] 哥斯拉2:怪兽之王[繁英字幕].Godzilla.King.of.the.Monsters.2019.UHD.BluRay.2160p.TrueHD(Atmos).7.1.x265.10bit.HDR-ALT 20.44GB

[复制链接]
蓝光币
8
发表于 2022-7-27 01:57:03 | 显示全部楼层 |阅读模式


◎标  题 哥斯拉2:怪兽之王
◎译  名 哥斯拉:怪兽之王 / 哥斯拉II: 王者巨兽(港) / 哥吉拉II怪兽之王(台) / 哥斯拉2 / 哥斯拉2018 / Godzilla 2
◎片  名 Godzilla: King of the Monsters
◎年  代 2019
◎产  地 美国 / 日本 / 中国大陆 / 加拿大
◎类  别 行动 / 科幻 / 冒险 / 灾难
◎语  言 英语
◎上映日期 2019-05-31(中国大陆/美国) / 2019-05-25(大范围点映)
◎IMDb评分 6/10 (169955人评价)
◎IMDb链接 https://www.imdb.com/title/tt3741700/
◎豆瓣评分 6.3/10 (249493人评价)
◎豆瓣链接 https://movie.douban.com/subject/25890017/
◎片  长 132分钟
◎导  演 迈克尔·道赫蒂 Michael Dougherty
◎编  剧 迈克尔·道赫蒂 Michael Dougherty
       扎克·希尔兹 Zach Shields
       麦克思·鲍伦斯坦 Max Borenstein
◎演  员 凯尔·钱德勒 Kyle Chandler
       维拉·法米加 Vera Farmiga
       米莉·波比·布朗 Millie Bobby Brown
       章子怡 Ziyi Zhang
       渡边谦 Ken Watanabe
       布莱德利·惠特福德 Bradley Whitford
       托马斯·米德蒂奇 Thomas Middleditch
       艾莎·辛德斯 Aisha Hinds
       莎莉·霍金斯 Sally Hawkins
       查尔斯·丹斯 Charles Dance
       大卫·斯特雷泽恩 David Strathairn
       小奥谢拉·杰克逊 O'Shea Jackson Jr.
       希·庞德 CCH Pounder
       安东尼·拉莫斯 Anthony Ramos
       杰森·莱尔斯 Jason Liles
       乔纳森·霍华德 Jonathan Howard
       莱尔·布罗卡托 Lyle Brocato
       兰德尔·P·海文斯 Randall P. Havens
       T·C·马特恩 T.C. Matherne
       吉米·冈萨雷斯 Jimmy Gonzales
       萨莎·里翁达 Sasha Rionda
       文斯·福斯特 Vince Foster
       贾斯蒂斯·利克 Justice Leak
       菲奥娜·哈丁汉姆 Fiona Hardingham
       露西·卡罗尔 Lucie Carroll
       约书亚·利瑞 Joshua Leary
       艾伦·马克森 Alan Maxson
       肯尼斯·以色列 Kenneth Israel
       阿尔·维森特 Al Vicente
       塞西尔·M·亨利 Cecil M. Henry
       迈克尔·大卫·育尔 Michael David Yuhl
       本杰明·韦弗 Benjamin Weaver
       卡梅伦·布鲁姆布罗 Cameron Brumbelow
       帕蒂·舍尔哈斯 Patti Schellhaas
       理查德·多顿 Richard Dorton
       詹姆斯·斯特林 James Sterling
       麦克斯威尔·海史姑娘 Maxwell Highsmith
       贾斯汀·斯劳特 Justin Slaughter
       肖恩·索斯 Shawn South
       马科·查卡 Marko Caka
       蒂莫西·卡尔 Timothy Carr
       亚历珊德拉‧瑞秋·拉贝 Alexandra Rachael Rabe
       泰勒·克朗姆利 Tyler Crumley
       詹姆斯·威廉·巴拉德 James William Ballard
       戴安娜·隆博拉 Diana Rombola
       斯凯拉·丹尼 Skylar Denney
       乔·莫顿 Joe Morton
       芦田爱菜 Mana Ashida
       田中圭 Kei Tanaka
       托马斯·图尔 Thomas Tull
       贝尔·麦克里里 Bear McCreary
       鲍勃·达克萨 Bob Ducsay
       罗杰·巴顿 Roger Barton
       林童 Tong Jason Lin
       汤姆·伍德鲁夫 Tom Woodruff Jr.
       布莱斯利斯维尔德 Brice Liesveld
       菲利普沃尔夫 Philipp Wolf
       洛伊·齐默曼 Loic Zimmermann
       特里·马里奥特 Terry Marriott
       莱昂·贝利斯 Leon Berlis
       卡洛斯·弗洛雷斯 Carlos E. Flores
       劳尔·佩雷斯 Raul Perez
       威尔·华莱士 Will Wallace
       伊利亚·阿法纳西耶夫 Illia Afanasiev
       达里尔·索丘克 Daryl Sawchuk
       劳伦·麦卡勒姆 Lauren McCallum
       亚苏里·阿德里亚内拉·阿里扎·罗德里格斯 Yasuri Adrianela Ariza Rodríguez
       弗朗西斯科·丹尼尔·利纳·伊达尔戈 Francisco Daniel Leana Hidalgo
       斯凯拉·戈雷尔 Skylar Gorrell
       王乔 Qiao Wang
◎标  签 怪兽 / 科幻 / 灾难 / 美国 / 殊效 / 2019 / 行动 / 日本
◎简  介
  随着《哥斯拉》和《金刚:骷髅岛》在全球范围内获得成功,传奇影业和华纳兄弟影业联手开启了怪兽宇宙系列电影的新篇章—一部史诗级行动冒险巨制。在这部电影中,哥斯拉将和众多大师在风行文化中所熟知的怪兽展开较劲。全新故事中,研讨奥秘动物学的机构“帝王构造”将勇敢直面巨型怪兽,其中强大的哥斯拉也将和魔斯拉、拉顿和它的死对头——三头王者基多拉展开剧烈匹敌。当这些只存在于传闻里的超级生物再度突起时,它们将展开王者争霸,人类的命运朝不保夕……
  1. ##### MediaInfo ######
  2. General
  3. Unique ID                                : 249792964688642913236027598972138067851 (0xBBEC6003DFBC74F627D50CA1FD44978B)
  4. Complete name                            : Godzilla.King.of.the.Monsters.2019.UHD.BluRay.2160p.TrueHD(Atmos).7.1.x265.10bit.HDR-ALT.mkv
  5. Format                                   : Matroska
  6. Format version                           : Version 4
  7. File size                                : 20.4 GiB
  8. Duration                                 : 2 h 11 min
  9. Overall bit rate mode                    : Variable
  10. Overall bit rate                         : 22.2 Mb/s
  11. Encoded date                             : UTC 2019-08-23 11:49:41
  12. Writing application                      : mkvmerge v36.0.0 ('Is That Jazz?') 64-bit
  13. Writing library                          : libebml v1.3.9 + libmatroska v1.5.2
  14. Video
  15. ID                                       : 1
  16. Format                                   : HEVC
  17. Format/Info                              : High Efficiency Video Coding
  18. Format profile                           : Main 10@L5.1@High
  19. HDR format                               : SMPTE ST 2086, HDR10 compatible
  20. Codec ID                                 : V_MPEGH/ISO/HEVC
  21. Duration                                 : 2 h 11 min
  22. Bit rate                                 : 17.6 Mb/s
  23. Width                                    : 3 840 pixels
  24. Height                                   : 1 600 pixels
  25. Display aspect ratio                     : 2.40:1
  26. Frame rate mode                          : Constant
  27. Frame rate                               : 23.976 (24000/1001/53875) FPS
  28. Color space                              : YUV
  29. Chroma subsampling                       : 4:2:0 (Type 2)
  30. Bit depth                                : 10 bits
  31. Bits/(Pixel*Frame)                       : 0.120
  32. Stream size                              : 16.2 GiB (79%)
  33. Title                                    : HEVC, x265Main10@L5.1@High, 24/1.001 fps @ 17623 kbps
  34. Writing library                          : x265 3.0_Au+4-dcbec33bfb0f:[Windows][GCC 8.2.1][64 bit] 10bit
  35. Encoding settings                        : cpuid=538751111039 / frame-threads=5 / numa-pools=44,44 / wpp / no-pmode / no-pme / no-psnr / no-ssim / log-level=2 / input-csp=1 / input-res=3840x1600 / interlace=0 / total-frames=189485 / level-idc=51 / high-tier=1 / uhd-bd=0 / ref=4 / no-allow-non-conformance / repeat-headers / annexb / no-aud / hrd / info / hash=0 / no-temporal-layers / no-open-gop / min-keyint=24 / keyint=240 / gop-lookahead=0 / bframes=8 / b-adapt=2 / b-pyramid / bframe-bias=0 / rc-lookahead=25 / lookahead-slices=0 / NTM4NzU=uuDQuD2mJt9fsCf / scenecut=40 / radl=0 / no-splice / no-intra-refresh / ctu=64 / min-cu-size=8 / no-rect / no-amp / max-tu-size=32 / tu-inter-depth=3 / tu-intra-depth=3 / limit-tu=4 / rdoq-level=2 / dynamic-rd=0.00 / no-ssim-rd / signhide / no-tskip / nr-intra=0 / nr-inter=0 / no-constrained-intra / no-strong-intra-smoothing / max-merge=4 / limit-refs=1 / limit-modes / me=3 / subme=4 / merange=25 / temporal-mvp / weightp / weightb / no-analyze-src-pics / deblock=-3:-3 / no-sao / no-sao-non-deblock / rd=6 / no-early-skip / rskip / no-fast-intra / no-tskip-fast / no-cu-lossless / b-intra / no-splitrd-skip / rdpenalty=0 / psy-rd=2.00 / psy-rdoq=1.00 / no-rd-refine / no-lossless / cbqpoffs=0 / crqpoffs=0 / rc=crf / crf=18.5 / qcomp=0.65 / qpstep=4 / stats-write=0 / stats-read=0 / vbv-maxrate=160000 / vbv-bufsize=160000 / vbv-init=0.9 / crf-max=0.0 / crf-min=0.0 / ipratio=1.30 / pbratio=1.20 / aq-mode=3 / aq-strength=0.85 / cutree / zone-count=0 / no-strict-cbr / qg-size=32 / no-rc-grain / qpmax=69 / qpmin=0 / no-const-vbv / sar=1 / overscan=0 / videoformat=5 / range=0 / colorprim=9 / transfer=16 / colormatrix=9 / chromaloc=1 / chromaloc-top=2 / chromaloc-bottom=2 / display-window=0 / master-display=G(13250,34500)B(7500,3000)R(34000,16000)WP(15635,16450)L(40000000,50) / max-cll=1998,414 / min-luma=0 / max-luma=1023 / log2-max-poc-lsb=8 / vui-timing-info / vui-hrd-info / slices=1 / no-opt-qp-pps / no-opt-ref-list-length-pps / no-multi-pass-opt-rps / scenecut-bias=0.05 / no-opt-cu-delta-qp / no-aq-motion / hdr / hdr-opt / no-dhdr10-opt / no-idr-recovery-sei / analysis-reuse-level=5 / scale-factor=0 / refine-intra=0 / refine-inter=0 / refine-mv=0 / refine-ctu-distortion=0 / no-limit-sao / ctu-info=0 / no-lowpass-dct / refine-analysis-type=0 / copy-pic=1 / max-ausize-factor=1.0 / no-dynamic-refine / no-single-sei / no-hevc-aq / qp-adaptation-range=1.00
  36. Language                                 : English
  37. Default                                  : Yes
  38. Forced                                   : No
  39. Color range                              : Limited
  40. Color primaries                          : BT.2020
  41. Transfer characteristics                 : PQ
  42. Matrix coefficients                      : BT.2020 non-constant
  43. Mastering display color primaries        : Display P3
  44. Mastering display luminance              : min: 0.0050 cd/m2, max: 4000 cd/m2
  45. Maximum Content Light Level              : 1998 cd/m2
  46. Maximum Frame-Average Light Level        : 414 cd/m2
  47. Audio #1
  48. ID                                       : 2
  49. Format                                   : MLP FBA 16-ch
  50. Format/Info                              : Meridian Lossless Packing FBA with 16-channel presentation
  51. Commercial name                          : Dolby TrueHD with Dolby Atmos
  52. Codec ID                                 : A_TRUEHD
  53. Duration                                 : 2 h 11 min
  54. Bit rate mode                            : Variable
  55. Bit rate                                 : 3 797 kb/s
  56. Maximum bit rate                         : 6 537 kb/s
  57. Channel(s)                               : 8 channels
  58. Channel layout                           : L R C LFE Ls Rs Lb Rb
  59. Sampling rate                            : 48.0 kHz
  60. Frame rate                               : 1 200.000 FPS (40 SPF)
  61. Compression mode                         : Lossless
  62. Stream size                              : 3.49 GiB (17%)
  63. Title                                    : English Dolby TrueHD 7.1 (Atmos) @ 4245 kbps
  64. Language                                 : English
  65. Default                                  : Yes
  66. Forced                                   : No
  67. Number of dynamic objects                : 15
  68. Bed channel count                        : 1 channel
  69. Bed channel configuration                : LFE
  70. Audio #2
  71. ID                                       : 3
  72. Format                                   : AC-3
  73. Format/Info                              : Audio Coding 3
  74. Commercial name                          : Dolby Digital
  75. Codec ID                                 : A_AC3
  76. Duration                                 : 2 h 11 min
  77. Bit rate mode                            : Constant
  78. Bit rate                                 : 448 kb/s
  79. Channel(s)                               : 6 channels
  80. Channel layout                           : L R C LFE Ls Rs
  81. Sampling rate                            : 48.0 kHz
  82. Frame rate                               : 31.250 FPS (1536 SPF)
  83. Compression mode                         : Lossy
  84. Stream size                              : 422 MiB (2%)
  85. Title                                    : English Dolby 5.1-EX @ 448 kbps
  86. Language                                 : English
  87. Service kind                             : Complete Main
  88. Default                                  : No
  89. Forced                                   : No
  90. Audio #3
  91. ID                                       : 4
  92. Format                                   : AC-3
  93. Format/Info                              : Audio Coding 3
  94. Commercial name                          : Dolby Digital
  95. Codec ID                                 : A_AC3
  96. Duration                                 : 2 h 11 min
  97. Bit rate mode                            : Constant
  98. Bit rate                                 : 192 kb/s
  99. Channel(s)                               : 2 channels
  100. Channel layout                           : L R
  101. Sampling rate                            : 48.0 kHz
  102. Frame rate                               : 31.250 FPS (1536 SPF)
  103. Compression mode                         : Lossy
  104. Stream size                              : 181 MiB (1%)
  105. Title                                    : English Dolby Digital Audio 2.0 @ 192 kbps  Commentary
  106. Language                                 : English
  107. Service kind                             : Complete Main
  108. Default                                  : No
  109. Forced                                   : No
  110. Text #1
  111. ID                                       : 5
  112. Format                                   : PGS
  113. Codec ID                                 : S_HDMV/PGS
  114. Codec ID/Info                            : Picture based subtitle format used on BDs/HD-DVDs
  115. Duration                                 : 2 h 11 min
  116. Bit rate                                 : 33.0 kb/s
  117. Count of elements                        : 3322
  118. Stream size                              : 31.0 MiB (0%)
  119. Title                                    : Eng/SUP
  120. Language                                 : English
  121. Default                                  : No
  122. Forced                                   : No
  123. Text #2
  124. ID                                       : 6
  125. Format                                   : PGS
  126. Codec ID                                 : S_HDMV/PGS
  127. Codec ID/Info                            : Picture based subtitle format used on BDs/HD-DVDs
  128. Duration                                 : 2 h 10 min
  129. Bit rate                                 : 25.4 kb/s
  130. Count of elements                        : 2492
  131. Stream size                              : 23.7 MiB (0%)
  132. Title                                    : Cht/SUP  原盘繁体(TW)
  133. Language                                 : Chinese
  134. Default                                  : Yes
  135. Forced                                   : No
  136. Text #3
  137. ID                                       : 7
  138. Format                                   : PGS
  139. Codec ID                                 : S_HDMV/PGS
  140. Codec ID/Info                            : Picture based subtitle format used on BDs/HD-DVDs
  141. Duration                                 : 2 h 10 min
  142. Bit rate                                 : 23.5 kb/s
  143. Count of elements                        : 2816
  144. Stream size                              : 22.0 MiB (0%)
  145. Title                                    : Cht/SUP  原盘繁体(HK)
  146. Language                                 : Chinese
  147. Default                                  : No
  148. Forced                                   : No
  149. Menu
  150. 00:00:00.000                             : en:绗?01 绔?
  151. 00:10:53.903                             : en:绗?02 绔?
  152. 00:18:06.836                             : en:绗?03 绔?
  153. 00:30:27.325                             : en:绗?04 绔?
  154. 00:45:18.633                             : en:绗?05 绔?
  155. 00:54:11.039                             : en:绗?06 绔?
  156. 01:05:41.646                             : en:绗?07 绔?
  157. 01:09:31.584                             : en:绗?08 绔?
  158. 01:19:31.308                             : en:绗?09 绔?
  159. 01:30:06.234                             : en:绗?10 绔?
  160. 01:38:36.869                             : en:绗?11 绔?
  161. 01:49:58.884                             : en:绗?12 绔?
  162. 01:59:28.828                             : en:绗?13 绔?
复制代码
















保举请利用qBittorrent,utorrent,transmission等标准BT软件下载!以获得最快速度。奉求保种!





哥斯拉2:怪兽之王[繁英字幕].Godzilla.King.of.the.Monsters.2019.UHD.BluRay.2160p.TrueHD(Atmos).7.1.x265.10bit.HDR-ALT 20.44GB
回复

使用道具 举报

蓝光币
67
发表于 2022-7-27 16:22:30 | 显示全部楼层

感谢楼主的无私分享!要想蓝光电影网好 就靠你我他
回复

使用道具 举报

蓝光币
0
发表于 2024-2-4 17:25:18 | 显示全部楼层
楼主发贴辛苦了,谢谢楼主分享!我觉得蓝光电影网是注册对了!
回复

使用道具 举报

懒得打字嘛,点击右侧快捷回复 【右侧内容,后台自定义】
您需要登录后才可以回帖 登录 | 立即加入

本版积分规则

Copyright © 2024 Comsenz Inc. Powered by 蓝光电影网

本站内容由用户自主分享和转载自互联网,转载目的在于传递更多信息,并不代表本网赞同其观点和对其真实性负责。

如有侵权、违反国家法律政策行为,请联系我们,我们会第一时间及时清除和处理!

举报反馈邮箱:4k1080.com@gmail.com

快速回复 返回顶部 返回列表