找回密码

蓝光电影网

查看: 42|回复: 0

[剧情] 误杀[国语音轨/中英字幕].Sheep.Without.A.Shepherd.2019.BluRay.1080p.x265.10bit-MiniHD 3.34GB

[复制链接]
蓝光币
7
发表于 2022-7-27 02:09:37 | 显示全部楼层 |阅读模式


◎标  题 误杀
◎译  名 误杀瞒天记中国版 / Sheep Without a Shepherd / Visual
◎年  代 2019
◎产  地 中国大陆
◎类  别 剧情 / 悬疑 / 犯罪
◎语  言 汉语普通话 / 泰语
◎上映日期 2019-12-13(中国大陆) / 2020-07-20(中国大陆重映) / 2019-12-07(大范围点映)
◎IMDb评分 6.8/10 (1259人评价)
◎IMDb链接 https://www.imdb.com/title/tt11210032/
◎豆瓣评分 7.6/10 (753046人评价)
◎豆瓣链接 https://movie.douban.com/subject/30176393/
◎片  长 112分钟
◎导  演 柯汶利 Boon-lip Quah
◎编  剧 杨薇薇 Weiwei Yang
       翟培 Pei Zhai
       李鹏 Peng Li
       范凯华 Kaihua Fan
       秦语谦 Yuqian Qin
       雷声 Sheng Lei
◎演  员 肖央 Yang Xiao
       谭卓 Zhuo Tan
       陈冲 Joan Chen
       姜皓文 Philip Keung Ho-Man
       秦沛 Paul Chun
       边天扬 Tianyang Bian
       许文姗 Audrey Hui
       张熙然 Xiran Zhang
       施名帅 Ming-Shuai Shih
       黄健玮 Chien-wei Huang
       陈志朋 Julian Chen
       谷洋 Yang Gu
       张林 Lin Zhang
       陈思诚 Sicheng Chen
       林朝阳 Chaoyang Lin
       马雪 Xue Ma
       陈援 Yuan Chen
       尚娜 Na Shang
       赵海城 Haicheng Zhao
       张颖 Ying Zhang
       胡天恩 Tianen Hu
       汤宏甲 Hongjia Tang
       祖昕宇 Xinyu Zu
       赵学昊 Xuehao Zhao
       李淼 Miao Li
       陈跃 Yue Chen
       李涛 Tao Li
       郝蕾 Lei Hao
       赵力 Li Zhao
◎标  签 悬疑 / 犯罪 / 剧情 / 翻拍 / 中国大陆 / 『肖央』 / 华语 / 2019
◎简  介
  李维杰(肖央 饰)与妻子阿玉(谭卓 饰)来泰打拼17年,膝下育有两个女儿,年届四十的他靠开设收集公司为生,为人也颇得小镇居民的好感,而这一切美好却被突如其来的不速之客打破。这个充溢走私,贩毒活动的边境小镇,各类权利交织碾压公允正义。李维杰的大女儿平平(许文珊 饰)被督察长拉韫(陈冲 饰)的儿子素察(边天扬 饰)迷奸,因抵挡误杀对方。李维杰曾亲眼目击督察长滥用私刑,深知法令无用,为了保护女儿,保卫家人,李维杰埋尸袒护一切证据,在时候与空间的交织裂缝中,与警方在身心层面,展开了殊死一搏的较劲。
  1. ##### MediaInfo ######
  2. General
  3. Unique ID                                : 6439165165079447363581519303097070789 (0x4D8235A936C88EB27C58B0F2E4E34C5)
  4. Complete name                            : Sheep.Without.A.Shepherd.2019.BluRay.1080p.x265.10bit-MiniHD.mkv
  5. Format                                   : Matroska
  6. Format version                           : Version 4
  7. File size                                : 3.34 GiB
  8. Duration                                 : 1 h 52 min
  9. Overall bit rate                         : 4 250 kb/s
  10. Movie name                               : 误杀.Sheep.Without.A.Shepherd.2019.BluRay.1080p.x265.10bit.MNHD-FRDS
  11. Encoded date                             : UTC 2021-04-06 02:16:55
  12. Writing application                      : mkvmerge v55.0.0 ('Waiting For Space') 64-bit
  13. Writing library                          : libebml v1.4.2 + libmatroska v1.6.4
  14. Video
  15. ID                                       : 1
  16. Format                                   : HEVC
  17. Format/Info                              : High Efficiency Video Coding
  18. Format profile                           : Main [email protected]@Main
  19. Codec ID                                 : V_MPEGH/ISO/HEVC
  20. Duration                                 : 1 h 52 min
  21. Bit rate                                 : 3 526 kb/s
  22. Width                                    : 1 920 pixels
  23. Height                                   : 808 pixels
  24. Display aspect ratio                     : 2.40:1
  25. Frame rate mode                          : Constant
  26. Frame rate                               : 24.000 FPS
  27. Color space                              : YUV
  28. Chroma subsampling                       : 4:2:0
  29. Bit depth                                : 10 bits
  30. Bits/(Pixel*Frame)                       : 0.095
  31. Stream size                              : 2.77 GiB (83%)
  32. Writing library                          : x265 3.4+13-g729a838d3+38:[Windows][GCC 10.2.0][64 bit] Asuna 10bit+8bit+12bit
  33. Encoding settings                        : rc=crf / crf=19.0000 / qcomp=0.70 / qpstep=4 / stats-write=0 / stats-read=0 / no-lossless / no-cu-lossless / aq-mode=2 / aq-strength=0.80 / cbqpoffs=-2 / crqpoffs=-2 / ipratio=1.40 / pbratio=1.30 / psy-rd=0.00 / psy-rdoq=5.00 / deblock=-1:-1 / ref=5 / limit-refs=2 / limit-modes / bframes=8 / b-adapt=2 / bframe-bias=0 / b-pyramid / b-intra / weightp / weightb / min-keyint=1 / max-keyint=360 / rc-lookahead=60 / gop-lookahead=0 / NTM4NzU=uuDQuD2mJt9fsCf / scenecut=40 / hist-scenecut=0 / radl=0 / max-cu-size=32 / min-cu-size=8 / me=3 / subme=5 / merange=25 / rdoq-level=1 / rd=4 / rdpenalty=1 / dynamic-rd=0.00 / no-rd-refine / ----- / cutree / no-sao / rect / no-amp / no-open-gop / wpp / no-pmode / no-pme / no-psnr / no-ssim / nr-intra=0 / nr-inter=0 / no-constrained-intra / no-strong-intra-smoothing / max-tu-size=16 / tu-inter-depth=2 / tu-intra-depth=2 / limit-tu=0 / qg-size=16 / qpmax=69 / qpmin=0 / ----- / cpuid=538751111039 / frame-threads=3 / numa-pools=8 / log-level=2 / input-csp=1 / input-res=1920x808 / interlace=0 / level-idc=0 / high-tier=1 / uhd-bd=0 / no-allow-non-conformance / no-repeat-headers / no-aud / no-hrd / info / hash=0 / no-temporal-layers / lookahead-slices=0 / no-splice / no-intra-refresh / ssim-rd / signhide / no-tskip / max-merge=5 / temporal-mvp / no-frame-dup / no-hme / no-analyze-src-pics / no-sao-non-deblock / selective-sao=0 / no-early-skip / rskip / no-fast-intra / no-tskip-fast / no-splitrd-skip / zone-count=0 / no-strict-cbr / no-rc-grain / no-const-vbv / sar=1 / overscan=0 / videoformat=5 / range=0 / colorprim=1 / transfer=2 / colormatrix=2 / chromaloc=0 / display-window=0 / cll=0,0 / min-luma=0 / max-luma=1023 / log2-max-poc-lsb=8 / vui-timing-info / vui-hrd-info / slices=1 / no-opt-qp-pps / no-opt-ref-list-length-pps / no-multi-pass-opt-rps / scenecut-bias=0.05 / hist-threshold=0.01 / no-opt-cu-delta-qp / no-aq-motion / no-hdr10 / no-hdr10-opt / no-dhdr10-opt / no-idr-recovery-sei / analysis-reuse-level=0 / analysis-save-reuse-level=0 / analysis-load-reuse-level=0 / scale-factor=0 / refine-intra=0 / refine-inter=0 / refine-mv=1 / refine-ctu-distortion=0 / no-limit-sao / ctu-info=0 / no-lowpass-dct / refine-analysis-type=0 / copy-pic=1 / max-ausize-factor=1.0 / no-dynamic-refine / no-single-sei / no-hevc-aq / no-svt / no-field / qp-adaptation-range=1.00 / no-scenecut-aware-qpconformance-window-offsets / right=0 / bottom=0 / NTM4NzU= / decoder-max-rate=0
  34. Default                                  : Yes
  35. Forced                                   : No
  36. Color range                              : Limited
  37. Color primaries                          : BT.709
  38. Audio
  39. ID                                       : 2
  40. Format                                   : AC-3
  41. Format/Info                              : Audio Coding 3
  42. Commercial name                          : Dolby Digital
  43. Codec ID                                 : A_AC3
  44. Duration                                 : 1 h 52 min
  45. Bit rate mode                            : Constant
  46. Bit rate                                 : 640 kb/s
  47. Channel(s)                               : 6 channels
  48. Channel layout                           : L R C LFE Ls Rs
  49. Sampling rate                            : 48.0 kHz
  50. Frame rate                               : 31.250 FPS (1536 SPF)
  51. Compression mode                         : Lossy
  52. Stream size                              : 515 MiB (15%)
  53. Language                                 : Chinese
  54. Service kind                             : Complete Main
  55. Default                                  : Yes
  56. Forced                                   : No
  57. Text #1
  58. ID                                       : 3
  59. Format                                   : PGS
  60. Muxing mode                              : zlib
  61. Codec ID                                 : S_HDMV/PGS
  62. Codec ID/Info                            : Picture based subtitle format used on BDs/HD-DVDs
  63. Language                                 : Chinese
  64. Default                                  : Yes
  65. Forced                                   : Yes
  66. Text #2
  67. ID                                       : 4
  68. Format                                   : PGS
  69. Muxing mode                              : zlib
  70. Codec ID                                 : S_HDMV/PGS
  71. Codec ID/Info                            : Picture based subtitle format used on BDs/HD-DVDs
  72. Language                                 : Chinese
  73. Default                                  : No
  74. Forced                                   : No
  75. Text #3
  76. ID                                       : 5
  77. Format                                   : PGS
  78. Muxing mode                              : zlib
  79. Codec ID                                 : S_HDMV/PGS
  80. Codec ID/Info                            : Picture based subtitle format used on BDs/HD-DVDs
  81. Language                                 : English
  82. Default                                  : No
  83. Forced                                   : No
  84. Menu
  85. 00:00:00.000                             : en:第 01 章
  86. 00:12:41.666                             : en:第 02 章
  87. 00:20:00.666                             : en:第 03 章
  88. 00:30:58.166                             : en:第 04 章
  89. 00:42:08.000                             : en:第 05 章
  90. 00:54:25.250                             : en:第 06 章
  91. 01:01:46.541                             : en:第 07 章
  92. 01:09:57.625                             : en:第 08 章
  93. 01:20:15.750                             : en:第 09 章
  94. 01:27:19.416                             : en:第 10 章
  95. 01:34:07.833                             : en:第 11 章
  96. 01:46:00.625                             : en:第 12 章
复制代码



保举请利用qBittorrent,utorrent,transmission等标准BT软件下载!以获得最快速度。奉求保种!





回复

使用道具 举报

懒得打字嘛,点击右侧快捷回复 【右侧内容,后台自定义】
您需要登录后才可以回帖 登录 | 立即加入

本版积分规则

Archiver|小黑屋| 蓝光电影网 |网站地图

Copyright © 2021 Comsenz Inc. Powered by 蓝光电影网

蓝光电影网

本站内容由用户自主分享和转载自互联网,转载目的在于传递更多信息,并不代表本网赞同其观点和对其真实性负责。

如有侵权、违反国家法律政策行为,请联系我们,我们会第一时间及时清除和处理!

举报反馈邮箱:[email protected]

快速回复 返回顶部 返回列表