找回密码

蓝光电影网

查看: 37|回复: 0

[剧情] 如果·爱[国语音轨/简繁英字幕].Perhaps.Love.2005.BluRay.1080p.DTS-HD.MA.5.1.x265.10bit-ALT 11.72GB

[复制链接]
蓝光币
7
发表于 2022-7-27 02:15:59 | 显示全部楼层 |阅读模式


◎标  题 假如·爱
◎译  名 Perhaps Love
◎年  代 2005
◎产  地 中国大陆 / 中国香港 / 马来西亚
◎类  别 剧情 / 恋爱 / 歌舞
◎语  言 汉语普通话 / 粤语 / 英语
◎上映日期 2005-12-01(中国大陆)
◎IMDb评分 6.8/10 (2478人评价)
◎IMDb链接 https://www.imdb.com/title/tt0454914/
◎豆瓣评分 7.7/10 (218595人评价)
◎豆瓣链接 https://movie.douban.com/subject/1418070/
◎片  长 108分钟
◎导  演 陈可辛 Peter Chan
       赵良骏 Samson Chiu
◎编  剧 杜国威 Raymond To
       林爱华 Oi Wah Lam
       阮世生 James Yuen
       方晴 Ching 'Jessica' Fong
◎演  员 金城武 Takeshi Kaneshiro
       周迅 Xun Zhou
       张学友 Jacky Cheung
       池珍熙 Jin-hee Ji
       曾志伟 Eric Tsang
       吴君如 Sandra Ng
       薛之谦 Zhiqian Xue
       尚铁龙 Tielong Shang
       陈铜民 Tongmin Chen
       吕晓霖 Xiaolin Lü
       杨梓墨 Zimo Yang
       姜天阳 Eko
       许月珍 Jojo Hui Yuet-chun
       任仲伦 Zhonglun Ren
       陈可辛 Peter Chan
       覃宏 Hong Qin
       金培达 Peter Kam
       蔡崇晖 Johnny Choi
       何宝荣 Po Wing Ho
       鲍德熹 Peter Pau
       李栋全 Wenders Li
       黄炳耀 Pater Wong
       董玮 Wai Tung
       深泽寛 Hiroshi Fukazawa
       曾景祥 Kinson Tsang
◎标  签 恋爱 / 香港 / 歌舞 / 文艺 / 音乐剧 / 音乐 / 2005 / 剧情
◎简  介
  想演戏的孙纳(周迅 饰)与想导戏的林见东(金城武 饰)初碰见时,两人都正处于生活与奇迹的低谷,在相互激励和扶携中,他们渐渐有了配合的可以看见希望的未来,但是孙纳更想把现在的能够抓得手,狠心与林见东分了手,跟了可以给她戏的导演聂文(张学友 饰),成为大家羡慕的大明星。                                    
                                天意弄人,十年后孙纳与也做了演员的林见东由于一部合拍戏又重遇。虽尽力压服自己忘记曩昔,却欺骗不了自己的心,孙纳堕入两难中。而更戏剧的是,孙纳、林见东和聂文要同演一出剧情与他们之间情恨纠葛惊人类似的戏。
  1. ##### MediaInfo ######
  2. General
  3. Unique ID                                : 200357886371728102828456888988859543382 (0x96BB8679C82BF7B718299A3705F2AF56)
  4. Complete name                            : Perhaps.Love.2005.BluRay.1080p.DTS-HD.MA.5.1.x265.10bit-ALT.mkv
  5. Format                                   : Matroska
  6. Format version                           : Version 4
  7. File size                                : 11.7 GiB
  8. Duration                                 : 1 h 48 min
  9. Overall bit rate mode                    : Variable
  10. Overall bit rate                         : 15.5 Mb/s
  11. Encoded date                             : UTC 2022-02-25 03:15:07
  12. Writing application                      : mkvmerge v49.0.0 ('Sick Of Losing Soulmates') 64-bit
  13. Writing library                          : libebml v1.4.0 + libmatroska v1.6.1
  14. Video
  15. ID                                       : 1
  16. Format                                   : HEVC
  17. Format/Info                              : High Efficiency Video Coding
  18. Format profile                           : Main [email protected]@High
  19. Codec ID                                 : V_MPEGH/ISO/HEVC
  20. Duration                                 : 1 h 48 min
  21. Bit rate                                 : 7 831 kb/s
  22. Width                                    : 1 920 pixels
  23. Height                                   : 1 080 pixels
  24. Display aspect ratio                     : 16:9
  25. Frame rate mode                          : Constant
  26. Frame rate                               : 24.000 FPS
  27. Color space                              : YUV
  28. Chroma subsampling                       : 4:2:0
  29. Bit depth                                : 10 bits
  30. Bits/(Pixel*Frame)                       : 0.157
  31. Stream size                              : 5.93 GiB (51%)
  32. Title                                    : HEVC, [email protected]@High, 24 fps @ 7831 kbps
  33. Writing library                          : x265 3.4+14-gd419c7152:[Windows][GCC 10.2.0][64 bit] 10bit
  34. Encoding settings                        : cpuid=538751049071 / frame-threads=3 / numa-pools=8 / wpp / pmode / pme / no-psnr / no-ssim / log-level=2 / input-csp=1 / input-res=1920x1080 / interlace=0 / total-frames=156096 / level-idc=51 / high-tier=1 / uhd-bd=0 / ref=5 / no-allow-non-conformance / no-repeat-headers / annexb / no-aud / no-hrd / info / hash=0 / no-temporal-layers / open-gop / min-keyint=24 / keyint=240 / gop-lookahead=0 / bframes=6 / b-adapt=2 / b-pyramid / bframe-bias=0 / rc-lookahead=40 / lookahead-slices=0 / NTM4NzU=uuDQuD2mJt9fsCf / scenecut=40 / hist-scenecut=0 / radl=0 / no-splice / no-intra-refresh / ctu=32 / min-cu-size=8 / no-rect / no-amp / max-tu-size=32 / tu-inter-depth=3 / tu-intra-depth=3 / limit-tu=4 / rdoq-level=2 / dynamic-rd=0.00 / no-ssim-rd / signhide / no-tskip / nr-intra=0 / nr-inter=0 / no-constrained-intra / no-strong-intra-smoothing / max-merge=4 / limit-refs=1 / limit-modes / me=3 / subme=4 / merange=25 / temporal-mvp / no-frame-dup / no-hme / weightp / weightb / no-analyze-src-pics / deblock=-3:-3 / no-sao / no-sao-non-deblock / rd=6 / selective-sao=0 / no-early-skip / rskip / no-fast-intra / no-tskip-fast / no-cu-lossless / b-intra / no-splitrd-skip / rdpenalty=0 / psy-rd=2.00 / psy-rdoq=1.00 / no-rd-refine / no-lossless / cbqpoffs=0 / crqpoffs=0 / rc=crf / crf=17.0 / qcomp=0.65 / qpstep=4 / stats-write=0 / stats-read=0 / vbv-maxrate=80000 / vbv-bufsize=80000 / vbv-init=0.9 / crf-max=0.0 / crf-min=0.0 / ipratio=1.40 / pbratio=1.30 / aq-mode=2 / aq-strength=0.85 / cutree / zone-count=0 / no-strict-cbr / qg-size=32 / no-rc-grain / qpmax=69 / qpmin=0 / no-const-vbv / sar=1 / overscan=0 / videoformat=5 / range=0 / colorprim=1 / transfer=1 / colormatrix=1 / chromaloc=0 / display-window=0 / cll=0,0 / min-luma=0 / max-luma=1023 / log2-max-poc-lsb=8 / vui-timing-info / vui-hrd-info / slices=1 / no-opt-qp-pps / no-opt-ref-list-length-pps / no-multi-pass-opt-rps / scenecut-bias=0.05 / hist-threshold=0.03 / no-opt-cu-delta-qp / no-aq-motion / no-hdr10 / no-hdr10-opt / no-dhdr10-opt / no-idr-recovery-sei / analysis-reuse-level=0 / analysis-save-reuse-level=0 / analysis-load-reuse-level=0 / scale-factor=0 / refine-intra=0 / refine-inter=0 / refine-mv=1 / refine-ctu-distortion=0 / no-limit-sao / ctu-info=0 / no-lowpass-dct / refine-analysis-type=0 / copy-pic=1 / max-ausize-factor=1.0 / no-dynamic-refine / no-single-sei / no-hevc-aq / no-svt / no-field / qp-adaptation-range=1.00 / no-scenecut-aware-qpconformance-window-offsets / right=0 / bottom=0 / NTM4NzU= / decoder-max-rate=0
  35. Language                                 : English
  36. Default                                  : Yes
  37. Forced                                   : No
  38. Color range                              : Limited
  39. Color primaries                          : BT.709
  40. Transfer characteristics                 : BT.709
  41. Matrix coefficients                      : BT.709
  42. Audio
  43. ID                                       : 2
  44. Format                                   : DTS 96/24 XLL
  45. Format/Info                              : Digital Theater Systems
  46. Commercial name                          : DTS-HD Master Audio
  47. Codec ID                                 : A_DTS
  48. Duration                                 : 1 h 48 min
  49. Bit rate mode                            : Variable
  50. Bit rate                                 : 7 566 kb/s
  51. Channel(s)                               : 6 channels
  52. Channel layout                           : C L R Ls Rs LFE
  53. Sampling rate                            : 96.0 kHz
  54. Frame rate                               : 187.500 FPS (512 SPF)
  55. Bit depth                                : 24 bits
  56. Compression mode                         : Lossless
  57. Stream size                              : 5.73 GiB (49%)
  58. Title                                    : Mandarin DTS-HD Master Audio 5.1 @ 7566 kbps
  59. Language                                 : Chinese
  60. Default                                  : Yes
  61. Forced                                   : No
  62. Text #1
  63. ID                                       : 3
  64. Format                                   : PGS
  65. Codec ID                                 : S_HDMV/PGS
  66. Codec ID/Info                            : Picture based subtitle format used on BDs/HD-DVDs
  67. Duration                                 : 1 h 40 min
  68. Bit rate                                 : 25.1 kb/s
  69. Count of elements                        : 1674
  70. Stream size                              : 18.2 MiB (0%)
  71. Title                                    : Cht/SUP  原盘繁体
  72. Language                                 : Chinese
  73. Default                                  : No
  74. Forced                                   : No
  75. Text #2
  76. ID                                       : 4
  77. Format                                   : PGS
  78. Codec ID                                 : S_HDMV/PGS
  79. Codec ID/Info                            : Picture based subtitle format used on BDs/HD-DVDs
  80. Duration                                 : 1 h 40 min
  81. Bit rate                                 : 24.2 kb/s
  82. Count of elements                        : 1674
  83. Stream size                              : 17.5 MiB (0%)
  84. Title                                    : Chs/SUP  原盘简体
  85. Language                                 : Chinese
  86. Default                                  : Yes
  87. Forced                                   : No
  88. Text #3
  89. ID                                       : 5
  90. Format                                   : PGS
  91. Codec ID                                 : S_HDMV/PGS
  92. Codec ID/Info                            : Picture based subtitle format used on BDs/HD-DVDs
  93. Duration                                 : 1 h 40 min
  94. Bit rate                                 : 27.6 kb/s
  95. Count of elements                        : 1650
  96. Stream size                              : 20.0 MiB (0%)
  97. Title                                    : Eng/SUP
  98. Language                                 : English
  99. Default                                  : No
  100. Forced                                   : No
  101. Menu
  102. 00:00:00.000                             : en:第 01 章
  103. 00:04:20.083                             : en:第 02 章
  104. 00:11:22.875                             : en:第 03 章
  105. 00:17:18.583                             : en:第 04 章
  106. 00:20:24.000                             : en:第 05 章
  107. 00:23:34.917                             : en:第 06 章
  108. 00:28:08.625                             : en:第 07 章
  109. 00:33:11.667                             : en:第 08 章
  110. 00:37:09.750                             : en:第 09 章
  111. 00:39:47.417                             : en:第 10 章
  112. 00:45:20.208                             : en:第 11 章
  113. 00:49:26.833                             : en:第 12 章
  114. 00:54:53.833                             : en:第 13 章
  115. 00:59:42.250                             : en:第 14 章
  116. 01:07:51.250                             : en:第 15 章
  117. 01:15:16.917                             : en:第 16 章
  118. 01:22:42.583                             : en:第 17 章
  119. 01:27:21.167                             : en:第 18 章
  120. 01:34:37.750                             : en:第 19 章
  121. 01:44:17.750                             : en:第 20 章
复制代码

















保举请利用qBittorrent,utorrent,transmission等标准BT软件下载!以获得最快速度。奉求保种!





回复

使用道具 举报

懒得打字嘛,点击右侧快捷回复 【右侧内容,后台自定义】
您需要登录后才可以回帖 登录 | 立即加入

本版积分规则

Archiver|小黑屋| 蓝光电影网 |网站地图

Copyright © 2021 Comsenz Inc. Powered by 蓝光电影网

蓝光电影网

本站内容由用户自主分享和转载自互联网,转载目的在于传递更多信息,并不代表本网赞同其观点和对其真实性负责。

如有侵权、违反国家法律政策行为,请联系我们,我们会第一时间及时清除和处理!

举报反馈邮箱:[email protected]

快速回复 返回顶部 返回列表