找回密码

蓝光电影网

查看: 33|回复: 0

[剧情] 背靠背,脸对脸[国语音轨/中英字幕].Back.to.Back.Face.to.Face.1994.Bluray.1080p.x265.10bit.FLAC-MiniHD 6.41GB

[复制链接]
蓝光币
7
发表于 2022-7-27 02:16:14 | 显示全部楼层 |阅读模式


◎标  题 面对面,脸对脸
◎译  名 背对背,脸对脸 / Back to Back /  Face to Face / 秋风醉了
◎年  代 1994
◎产  地 中国大陆 / 中国香港
◎类  别 剧情
◎语  言 汉语普通话
◎上映日期 1994-09-10(多伦多电影节)
◎IMDb评分 8/10 (452人评价)
◎IMDb链接 https://www.imdb.com/title/tt0109235/
◎豆瓣评分 9.5/10 (86753人评价)
◎豆瓣链接 https://movie.douban.com/subject/1307856/
◎片  长 148分钟
◎导  演 黄建新 Jianxin Huang
       杨亚洲 Yazhou Yang
◎编  剧 黄建新 Jianxin Huang
       孙毅安 Yi-an Sun
       刘醒龙 Xinglong Liu
◎演  员 牛振华 Zhenhua Niu
       雷恪生 Kesheng Lei
       李强 Qiang Li
       句号 Hao Ju
       王劲松 Jinsong Wang
       戈治均 Zhijun Ge
       佘南南 Nannan She
       张嘉益 Jiayi Zhang
       刘国祥 Guoxiang Liu
       徐学政 Xuezheng Xu
       林海海 Haihai Lin
       温谦 Qian Wen
       马载军 Zaijun Ma
       吴玮玲 Weiling Wu
       张艺 Yi Zhang
       韩炳杰 Bingjie Han
       杨亚洲 Yazhou Yang
       王洪光 Hongguang Wang
       张之亮 Jacob Cheung
       张大龙 Dalong Zhang
       张晓光 Xiaoguang Zhang
       朱伸 Shen Zhu
       雷秦 Qin Lei
       张行震 Xingzheng Zhang
       李兴齐 Xingqi Li
       程茵 Yin Cheng
       延军 Jun Yan
◎标  签 政治 / 人性 / 典范 / 中国电影 / 中国 / 大陆 / 剧情 / 1994
◎简  介
  王双立(牛振华 饰)是某地文化馆的代馆长,这个馆长一代就是好几年,想升也升不上去,却也没有其他变更。不意一天,来了新的文化馆长老马(雷恪生 饰),这让王双立离正馆长的间隔更远了。新馆长老马原是个副乡长,王双立以为他是个土包子,心里很是不以为然,操纵自己对文化馆人际关系熟 悉的上风,想方想法给老马出困难。经过几轮较劲,老马终究被挤走,王双立又成了代馆长,再次受带领重用,岂料,螳螂捕蝉黄雀在后,秘书小阎(李强 饰)成了新一任馆长。王双立不宁愿,再次和小阎斗法,想将对方挤走,此次王双立还能如愿与偿吗?                                    
                                电影《面对面,脸对脸》获得第二届大门生电影节最好故事片和最好男配角奖、东京国际电影节最好男配角奖、第15届金鸡奖最好导演和最好合作片奖、第14届香港电影金像奖十大华语片。
  1. ##### MediaInfo ######
  2. General
  3. Unique ID                                : 164352981047597511830517867807617652246 (0x7BA53B967ACBDBA1784046755E411616)
  4. Complete name                            : Back.to.Back.Face.to.Face.1994.Bluray.1080p.x265.10bit.FLAC-MiniHD.mkv
  5. Format                                   : Matroska
  6. Format version                           : Version 4
  7. File size                                : 6.41 GiB
  8. Duration                                 : 2 h 27 min
  9. Overall bit rate mode                    : Variable
  10. Overall bit rate                         : 6 203 kb/s
  11. Movie name                               : Back To Back, Face To Face - Blu-ray?
  12. Encoded date                             : UTC 2021-01-28 07:46:55
  13. Writing application                      : mkvmerge v51.0.0 ('I Wish') 64-bit
  14. Writing library                          : libebml v1.4.0 + libmatroska v1.6.2
  15. Cover                                    : Yes
  16. Attachments                              : cover.jpg
  17. Video
  18. ID                                       : 1
  19. Format                                   : HEVC
  20. Format/Info                              : High Efficiency Video Coding
  21. Format profile                           : Main [email protected]@High
  22. Codec ID                                 : V_MPEGH/ISO/HEVC
  23. Duration                                 : 2 h 27 min
  24. Bit rate                                 : 5 804 kb/s
  25. Width                                    : 1 920 pixels
  26. Height                                   : 1 036 pixels
  27. Display aspect ratio                     : 1.85:1
  28. Frame rate mode                          : Constant
  29. Frame rate                               : 24.000 FPS
  30. Color space                              : YUV
  31. Chroma subsampling                       : 4:2:0
  32. Bit depth                                : 10 bits
  33. Bits/(Pixel*Frame)                       : 0.122
  34. Stream size                              : 6.00 GiB (94%)
  35. Writing library                          : x265 3.4+33-606265ac7:[Windows][MSVC 1928][64 bit] 10bit
  36. Encoding settings                        : cpuid=538751111039 / frame-threads=3 / numa-pools=8 / wpp / pmode / no-pme / no-psnr / no-ssim / log-level=2 / input-csp=1 / input-res=1920x1036 / interlace=0 / total-frames=213017 / level-idc=0 / high-tier=1 / uhd-bd=0 / ref=4 / no-allow-non-conformance / no-repeat-headers / annexb / no-aud / no-hrd / info / hash=0 / no-temporal-layers / no-open-gop / min-keyint=1 / keyint=250 / gop-lookahead=0 / bframes=6 / b-adapt=2 / b-pyramid / bframe-bias=0 / rc-lookahead=80 / lookahead-slices=0 / NTM4NzU=uuDQuD2mJt9fsCf / scenecut=40 / hist-scenecut=0 / radl=0 / no-splice / no-intra-refresh / ctu=32 / min-cu-size=8 / no-rect / no-amp / max-tu-size=32 / tu-inter-depth=4 / tu-intra-depth=4 / limit-tu=0 / rdoq-level=2 / dynamic-rd=0.00 / no-ssim-rd / signhide / tskip / nr-intra=0 / nr-inter=0 / no-constrained-intra / strong-intra-smoothing / max-merge=5 / limit-refs=0 / no-limit-modes / me=3 / subme=7 / merange=44 / temporal-mvp / no-frame-dup / no-hme / weightp / weightb / no-analyze-src-pics / deblock=-3:-3 / no-sao / no-sao-non-deblock / rd=4 / selective-sao=0 / no-early-skip / no-rskip / no-fast-intra / no-tskip-fast / no-cu-lossless / b-intra / no-splitrd-skip / rdpenalty=0 / psy-rd=1.50 / psy-rdoq=1.00 / no-rd-refine / no-lossless / cbqpoffs=-2 / crqpoffs=-2 / rc=crf / crf=21.0 / qcomp=0.65 / qpstep=4 / stats-write=0 / stats-read=0 / vbv-maxrate=160000 / vbv-bufsize=160000 / vbv-init=0.9 / min-vbv-fullness=50.0 / max-vbv-fullness=80.0 / crf-max=0.0 / crf-min=0.0 / ipratio=1.30 / pbratio=1.20 / aq-mode=2 / aq-strength=0.90 / no-cutree / zone-count=0 / no-strict-cbr / qg-size=8 / no-rc-grain / qpmax=69 / qpmin=0 / no-const-vbv / sar=0 / overscan=0 / videoformat=5 / range=0 / colorprim=1 / transfer=1 / colormatrix=1 / chromaloc=0 / display-window=0 / cll=0,0 / min-luma=0 / max-luma=1023 / log2-max-poc-lsb=8 / vui-timing-info / vui-hrd-info / slices=1 / no-opt-qp-pps / no-opt-ref-list-length-pps / no-multi-pass-opt-rps / scenecut-bias=0.05 / hist-threshold=0.03 / no-opt-cu-delta-qp / no-aq-motion / no-hdr10 / no-hdr10-opt / no-dhdr10-opt / no-idr-recovery-sei / analysis-reuse-level=0 / analysis-save-reuse-level=0 / analysis-load-reuse-level=0 / scale-factor=0 / refine-intra=0 / refine-inter=0 / refine-mv=1 / refine-ctu-distortion=0 / no-limit-sao / ctu-info=0 / no-lowpass-dct / refine-analysis-type=0 / copy-pic=1 / max-ausize-factor=1.0 / no-dynamic-refine / no-single-sei / no-hevc-aq / no-svt / no-field / qp-adaptation-range=1.00 / scenecut-aware-qp=0conformance-window-offsets / right=0 / bottom=0 / NTM4NzU= / decoder-max-rate=0 / no-vbv-live-multi-pass
  37. Default                                  : Yes
  38. Forced                                   : No
  39. Color range                              : Limited
  40. Color primaries                          : BT.709
  41. Transfer characteristics                 : BT.709
  42. Matrix coefficients                      : BT.709
  43. Audio
  44. ID                                       : 2
  45. Format                                   : FLAC
  46. Format/Info                              : Free Lossless Audio Codec
  47. Codec ID                                 : A_FLAC
  48. Duration                                 : 2 h 27 min
  49. Bit rate mode                            : Variable
  50. Bit rate                                 : 364 kb/s
  51. Channel(s)                               : 1 channel
  52. Channel layout                           : C
  53. Sampling rate                            : 48.0 kHz
  54. Frame rate                               : 11.719 FPS (4096 SPF)
  55. Bit depth                                : 16 bits
  56. Compression mode                         : Lossless
  57. Stream size                              : 385 MiB (6%)
  58. Writing library                          : libFLAC 1.2.1 (UTC 2007-09-17)
  59. Language                                 : Chinese
  60. Default                                  : Yes
  61. Forced                                   : No
  62. Text #1
  63. ID                                       : 3
  64. ID in the original source medium         : 4608 (0x1200)
  65. Format                                   : PGS
  66. Muxing mode                              : zlib
  67. Codec ID                                 : S_HDMV/PGS
  68. Codec ID/Info                            : Picture based subtitle format used on BDs/HD-DVDs
  69. Duration                                 : 2 h 24 min
  70. Bit rate                                 : 27.5 kb/s
  71. Count of elements                        : 3459
  72. Stream size                              : 28.4 MiB (0%)
  73. Language                                 : Chinese
  74. Default                                  : Yes
  75. Forced                                   : No
  76. Original source medium                   : Blu-ray
  77. Text #2
  78. ID                                       : 4
  79. ID in the original source medium         : 4609 (0x1201)
  80. Format                                   : PGS
  81. Muxing mode                              : zlib
  82. Codec ID                                 : S_HDMV/PGS
  83. Codec ID/Info                            : Picture based subtitle format used on BDs/HD-DVDs
  84. Duration                                 : 2 h 24 min
  85. Bit rate                                 : 41.0 kb/s
  86. Count of elements                        : 3427
  87. Stream size                              : 42.3 MiB (1%)
  88. Language                                 : English
  89. Default                                  : No
  90. Forced                                   : No
  91. Original source medium                   : Blu-ray
  92. Menu
  93. 00:00:00.000                             : en:Chapter 01
  94. 00:17:40.000                             : en:Chapter 02
  95. 00:27:34.666                             : en:Chapter 03
  96. 00:37:11.291                             : en:Chapter 04
  97. 00:49:32.708                             : en:Chapter 05
  98. 01:00:34.875                             : en:Chapter 06
  99. 01:10:13.000                             : en:Chapter 07
  100. 01:22:47.625                             : en:Chapter 08
  101. 01:35:05.666                             : en:Chapter 09
  102. 01:44:12.125                             : en:Chapter 10
  103. 01:58:43.791                             : en:Chapter 11
  104. 02:17:44.208                             : en:Chapter 12
复制代码



保举请利用qBittorrent,utorrent,transmission等标准BT软件下载!以获得最快速度。奉求保种!





回复

使用道具 举报

懒得打字嘛,点击右侧快捷回复 【右侧内容,后台自定义】
您需要登录后才可以回帖 登录 | 立即加入

本版积分规则

Archiver|小黑屋| 蓝光电影网 |网站地图

Copyright © 2021 Comsenz Inc. Powered by 蓝光电影网

蓝光电影网

本站内容由用户自主分享和转载自互联网,转载目的在于传递更多信息,并不代表本网赞同其观点和对其真实性负责。

如有侵权、违反国家法律政策行为,请联系我们,我们会第一时间及时清除和处理!

举报反馈邮箱:[email protected]

快速回复 返回顶部 返回列表