找回密码

蓝光电影网

查看: 45|回复: 0

[剧情] 复仇者[简繁字幕].Avengement.2019.UNCUT.1080p.Bluray.x265.10bit.DDP.5.1-MiniHD 4.69GB

[复制链接]
蓝光币
7
发表于 2022-7-27 02:16:16 | 显示全部楼层 |阅读模式


◎标  题 复仇者
◎片  名 Avengement
◎年  代 2019
◎产  地 英国
◎类  别 行动 / 犯罪
◎语  言 英语
◎上映日期 2019-05-24(美国)
◎IMDb评分 6.6/10 (14256人评价)
◎IMDb链接 https://www.imdb.com/title/tt8836988/
◎豆瓣链接 https://movie.douban.com/subject/30299234/
◎片  长 90分钟
◎标  签 行动 / 暴力 / 犯罪 / 牢狱 / 复仇 / 血腥 / 美国 / 2019
◎简  介
    斯科特·阿金斯饰演的犯人获得了牢狱暂许出行的机遇。他找准机会抛弃了监视差人,继续他的复仇之路,让仇人血债血偿。他也借此机遇寻觅多年前早已丢失的自我,实现自我救赎。                                                                      斯科特·阿金斯继《意外杀手》《索债人》等再度和导演杰西·约翰逊合作,向典范黑帮片致敬。
  1. ##### MediaInfo ######
  2. General
  3. Unique ID                                : 240084771028031214174813388771059833293 (0xB49EA51CD8E4406831F58C819A0819CD)
  4. Complete name                            : Avengement.2019.UNCUT.1080p.Bluray.x265.10bit.DDP.5.1-MiniHD.mkv
  5. Format                                   : Matroska
  6. Format version                           : Version 4
  7. File size                                : 4.69 GiB
  8. Duration                                 : 1 h 27 min
  9. Overall bit rate                         : 7 656 kb/s
  10. Movie name                               : Avengement [2019] Uncut 1080p Bluray - FRDS
  11. Encoded date                             : UTC 2021-03-24 01:03:29
  12. Writing application                      : mkvmerge v55.0.0 ('Waiting For Space') 64-bit
  13. Writing library                          : libebml v1.4.2 + libmatroska v1.6.4
  14. Cover                                    : Yes
  15. Attachments                              : cover.jpg
  16. Video
  17. ID                                       : 1
  18. Format                                   : HEVC
  19. Format/Info                              : High Efficiency Video Coding
  20. Format profile                           : Main [email protected]@High
  21. Codec ID                                 : V_MPEGH/ISO/HEVC
  22. Duration                                 : 1 h 27 min
  23. Bit rate                                 : 6 545 kb/s
  24. Width                                    : 1 920 pixels
  25. Height                                   : 820 pixels
  26. Display aspect ratio                     : 2.35:1
  27. Frame rate mode                          : Constant
  28. Frame rate                               : 23.976 (24000/1001/53875) FPS
  29. Color space                              : YUV
  30. Chroma subsampling                       : 4:2:0
  31. Bit depth                                : 10 bits
  32. Bits/(Pixel*Frame)                       : 0.173
  33. Stream size                              : 4.01 GiB (85%)
  34. Writing library                          : x265 3.5+8-57e817329:[Windows][MSVC 1928][64 bit] 10bit
  35. Encoding settings                        : cpuid=538751111039 / frame-threads=3 / numa-pools=8 / wpp / pmode / no-pme / no-psnr / no-ssim / log-level=2 / input-csp=1 / input-res=1920x820 / interlace=0 / total-frames=126246 / level-idc=0 / high-tier=1 / uhd-bd=0 / ref=5 / no-allow-non-conformance / no-repeat-headers / annexb / no-aud / no-hrd / info / hash=0 / no-temporal-layers / no-open-gop / min-keyint=1 / keyint=250 / gop-lookahead=0 / bframes=8 / b-adapt=2 / b-pyramid / bframe-bias=0 / rc-lookahead=100 / lookahead-slices=0 / NTM4NzU=uuDQuD2mJt9fsCf / scenecut=40 / hist-scenecut=0 / radl=0 / no-splice / no-intra-refresh / ctu=32 / min-cu-size=8 / no-rect / no-amp / max-tu-size=32 / tu-inter-depth=4 / tu-intra-depth=4 / limit-tu=0 / rdoq-level=2 / dynamic-rd=0.00 / no-ssim-rd / signhide / tskip / nr-intra=0 / nr-inter=0 / no-constrained-intra / strong-intra-smoothing / max-merge=5 / limit-refs=0 / no-limit-modes / me=3 / subme=7 / merange=57 / temporal-mvp / no-frame-dup / no-hme / weightp / weightb / no-analyze-src-pics / deblock=-3:-3 / no-sao / no-sao-non-deblock / rd=4 / selective-sao=0 / no-early-skip / no-rskip / no-fast-intra / no-tskip-fast / no-cu-lossless / b-intra / no-splitrd-skip / rdpenalty=0 / psy-rd=1.50 / psy-rdoq=1.00 / no-rd-refine / no-lossless / cbqpoffs=-2 / crqpoffs=-2 / rc=crf / crf=19.0 / qcomp=0.65 / qpstep=4 / stats-write=0 / stats-read=0 / vbv-maxrate=160000 / vbv-bufsize=160000 / vbv-init=0.9 / min-vbv-fullness=50.0 / max-vbv-fullness=80.0 / crf-max=0.0 / crf-min=0.0 / ipratio=1.30 / pbratio=1.20 / aq-mode=1 / aq-strength=1.00 / no-cutree / zone-count=0 / no-strict-cbr / qg-size=8 / no-rc-grain / qpmax=69 / qpmin=0 / no-const-vbv / sar=0 / overscan=0 / videoformat=5 / range=0 / colorprim=1 / transfer=1 / colormatrix=1 / chromaloc=0 / display-window=0 / cll=0,0 / min-luma=0 / max-luma=1023 / log2-max-poc-lsb=8 / vui-timing-info / vui-hrd-info / slices=1 / no-opt-qp-pps / no-opt-ref-list-length-pps / no-multi-pass-opt-rps / scenecut-bias=0.05 / hist-threshold=0.03 / no-opt-cu-delta-qp / no-aq-motion / no-hdr10 / no-hdr10-opt / no-dhdr10-opt / no-idr-recovery-sei / analysis-reuse-level=0 / analysis-save-reuse-level=0 / analysis-load-reuse-level=0 / scale-factor=0 / refine-intra=0 / refine-inter=0 / refine-mv=1 / refine-ctu-distortion=0 / no-limit-sao / ctu-info=0 / no-lowpass-dct / refine-analysis-type=0 / copy-pic=1 / max-ausize-factor=1.0 / no-dynamic-refine / no-single-sei / no-hevc-aq / no-svt / no-field / qp-adaptation-range=1.00 / scenecut-aware-qp=0conformance-window-offsets / right=0 / bottom=0 / NTM4NzU= / decoder-max-rate=0 / no-vbv-live-multi-pass
  36. Default                                  : Yes
  37. Forced                                   : No
  38. Color range                              : Limited
  39. Color primaries                          : BT.709
  40. Transfer characteristics                 : BT.709
  41. Matrix coefficients                      : BT.709
  42. Audio
  43. ID                                       : 2
  44. Format                                   : E-AC-3
  45. Format/Info                              : Enhanced AC-3
  46. Commercial name                          : Dolby Digital Plus
  47. Codec ID                                 : A_EAC3
  48. Duration                                 : 1 h 27 min
  49. Bit rate mode                            : Constant
  50. Bit rate                                 : 1 023 kb/s
  51. Channel(s)                               : 6 channels
  52. Channel layout                           : L R C LFE Ls Rs
  53. Sampling rate                            : 48.0 kHz
  54. Frame rate                               : 93.750 FPS (512 SPF)
  55. Compression mode                         : Lossy
  56. Stream size                              : 642 MiB (13%)
  57. Language                                 : English
  58. Service kind                             : Complete Main
  59. Default                                  : Yes
  60. Forced                                   : No
  61. Text #1
  62. ID                                       : 3
  63. ID in the original source medium         : 4610 (0x1202)
  64. Format                                   : PGS
  65. Muxing mode                              : zlib
  66. Codec ID                                 : S_HDMV/PGS
  67. Codec ID/Info                            : Picture based subtitle format used on BDs/HD-DVDs
  68. Duration                                 : 1 h 26 min
  69. Bit rate                                 : 49.0 kb/s
  70. Count of elements                        : 2303
  71. Stream size                              : 30.3 MiB (1%)
  72. Title                                    : chs&eng
  73. Language                                 : Chinese
  74. Default                                  : Yes
  75. Forced                                   : No
  76. Original source medium                   : Blu-ray
  77. Text #2
  78. ID                                       : 4
  79. ID in the original source medium         : 4611 (0x1203)
  80. Format                                   : PGS
  81. Muxing mode                              : zlib
  82. Codec ID                                 : S_HDMV/PGS
  83. Codec ID/Info                            : Picture based subtitle format used on BDs/HD-DVDs
  84. Duration                                 : 1 h 26 min
  85. Bit rate                                 : 49.4 kb/s
  86. Count of elements                        : 2303
  87. Stream size                              : 30.5 MiB (1%)
  88. Title                                    : cht&eng
  89. Language                                 : Chinese
  90. Default                                  : No
  91. Forced                                   : No
  92. Original source medium                   : Blu-ray
  93. Text #3
  94. ID                                       : 5
  95. ID in the original source medium         : 4612 (0x1204)
  96. Format                                   : PGS
  97. Muxing mode                              : zlib
  98. Codec ID                                 : S_HDMV/PGS
  99. Codec ID/Info                            : Picture based subtitle format used on BDs/HD-DVDs
  100. Duration                                 : 1 h 26 min
  101. Bit rate                                 : 28.9 kb/s
  102. Count of elements                        : 2303
  103. Stream size                              : 17.9 MiB (0%)
  104. Title                                    : CHS
  105. Language                                 : Chinese
  106. Default                                  : No
  107. Forced                                   : No
  108. Original source medium                   : Blu-ray
  109. Text #4
  110. ID                                       : 6
  111. ID in the original source medium         : 4613 (0x1205)
  112. Format                                   : PGS
  113. Muxing mode                              : zlib
  114. Codec ID                                 : S_HDMV/PGS
  115. Codec ID/Info                            : Picture based subtitle format used on BDs/HD-DVDs
  116. Duration                                 : 1 h 26 min
  117. Bit rate                                 : 29.4 kb/s
  118. Count of elements                        : 2303
  119. Stream size                              : 18.1 MiB (0%)
  120. Title                                    : CHT
  121. Language                                 : Chinese
  122. Default                                  : No
  123. Forced                                   : No
  124. Original source medium                   : Blu-ray
  125. Text #5
  126. ID                                       : 7
  127. ID in the original source medium         : 4608 (0x1200)
  128. Format                                   : PGS
  129. Muxing mode                              : zlib
  130. Codec ID                                 : S_HDMV/PGS
  131. Codec ID/Info                            : Picture based subtitle format used on BDs/HD-DVDs
  132. Duration                                 : 3 min 1 s
  133. Bit rate                                 : 1 162 b/s
  134. Count of elements                        : 6
  135. Stream size                              : 25.7 KiB (0%)
  136. Language                                 : German
  137. Default                                  : No
  138. Forced                                   : No
  139. Original source medium                   : Blu-ray
  140. Text #6
  141. ID                                       : 8
  142. ID in the original source medium         : 4609 (0x1201)
  143. Format                                   : PGS
  144. Muxing mode                              : zlib
  145. Codec ID                                 : S_HDMV/PGS
  146. Codec ID/Info                            : Picture based subtitle format used on BDs/HD-DVDs
  147. Duration                                 : 1 h 26 min
  148. Bit rate                                 : 31.4 kb/s
  149. Count of elements                        : 1946
  150. Stream size                              : 19.4 MiB (0%)
  151. Language                                 : German
  152. Default                                  : No
  153. Forced                                   : No
  154. Original source medium                   : Blu-ray
  155. Menu
  156. 00:00:00.000                             : en:Chapter 01
  157. 00:08:00.480                             : en:Chapter 02
  158. 00:16:00.960                             : en:Chapter 03
  159. 00:24:01.440                             : en:Chapter 04
  160. 00:32:01.920                             : en:Chapter 05
  161. 00:40:03.401                             : en:Chapter 06
  162. 00:48:02.880                             : en:Chapter 07
  163. 00:56:03.360                             : en:Chapter 08
  164. 01:04:03.840                             : en:Chapter 09
  165. 01:12:04.320                             : en:Chapter 10
  166. 01:20:04.800                             : en:Chapter 11
  167. 01:24:05.040                             : en:Chapter 12
复制代码



保举请利用qBittorrent,utorrent,transmission等标准BT软件下载!以获得最快速度。奉求保种!





回复

使用道具 举报

懒得打字嘛,点击右侧快捷回复 【右侧内容,后台自定义】
您需要登录后才可以回帖 登录 | 立即加入

本版积分规则

Archiver|小黑屋| 蓝光电影网 |网站地图

Copyright © 2021 Comsenz Inc. Powered by 蓝光电影网

蓝光电影网

本站内容由用户自主分享和转载自互联网,转载目的在于传递更多信息,并不代表本网赞同其观点和对其真实性负责。

如有侵权、违反国家法律政策行为,请联系我们,我们会第一时间及时清除和处理!

举报反馈邮箱:[email protected]

快速回复 返回顶部 返回列表