找回密码

蓝光电影网

查看: 55|回复: 1

[剧情] 蜀山:新蜀山剑侠[国英多音轨/中英字幕].Zu.The.Warriors.from.the.Magic.Mountain.1983.1080p.BluRay.FLAC1.0.x264-MOMOHD 14.17GB

[复制链接]
蓝光币
7
发表于 2022-7-27 02:16:28 | 显示全部楼层 |阅读模式


◎标  题 蜀山:新蜀山剑侠
◎译  名 新蜀山剑侠 / Zu: The Warriors from the Magic Mountain
◎片  名 蜀山:新蜀山劍俠
◎年  代 1983
◎产  地 中国香港
◎类  别 剧情 / 行动 / 奇异 / 武侠 / 古装
◎语  言 粤语
◎上映日期 1983-02-05(中国香港)
◎IMDb评分 6.6/10 (2625人评价)
◎IMDb链接 https://www.imdb.com/title/tt0086308/
◎豆瓣评分 7.0/10 (20500人评价)
◎豆瓣链接 https://movie.douban.com/subject/1307775/
◎片  长 112分钟
◎导  演 徐克 Hark Tsui
◎编  剧 司徒卓汉 Chuek-Hon Szeto
       还珠楼主 Shoumin Li
◎演  员 郑少秋 Adam Cheng
       元彪 Biao Yuen
       孟海 Hoi Mang
       李赛凤 Moon Lee
       林青霞 Brigitte Lin
       洪金宝 Sammo Hung Kam-Bo
       翁倩玉 Judy Ongg
       刘松仁 Damian Lau
       徐少强 Norman Chu
       元奎 Corey Yuen
       元武 Wu Yuan
       彭润祥 Yun-chiang Peng
       西瓜刨 Gwa-pau Sai
       刘秋生 Chau Sang Lau
       钟发 Fat Chung
       夏光莉 Kwan-Li Shen
       冯克安 Hark-On Fung
       何冠昌 Leonard Ho
       邹文怀 Raymond Chow
       顾嘉辉 Joseph Koo
       邓少林 Siu-Lam Tang
       黄仲标 Bill Wong
       张叔平 William Chang
       冯克安 Hark-On Fung
       周少龙 Shao Lung Chou
◎标  签 徐克 / 林青霞 / 香港 / 武侠 / 香港电影 / 魔幻 / 郑少秋 / 奇异
◎简  介
  五胡乱华时代,西蜀兵探子狄明奇(元彪 饰)幸得南海派丁引(郑少秋 饰)相救才没误入魔教,见丁引技艺高强,他大力劝其自告奋勇救济天上百姓,并想拜其为师,遭丁引拒绝。丁引师弟昆仑派掌门人晓如(刘松仁 饰)在与魔教护法的打架中被血魔附身,丁引决议带他到仙境仙堡疗伤。                                    
                                因丁引是能让堡中冰焰 不灭的有缘人,正在闭关修行的堡主(林青霞 饰)出关救下晓如。而丁引失慎被血魔所伤后,堡主却因救晓如耗尽元气有力救济,只能将冰镜打破,冻住血魔,但众人也皆被冰封住,唯一狄明奇、晓如徒弟一真(孟海 饰)与仙堡女门生(李赛凤 饰)逃走。为普救全国百姓,三人决议到天刀峰寻觅李亦奇女侠(翁倩玉 饰)与紫青双剑。
  1. ##### MediaInfo ######
  2. General
  3. Unique ID                                : 291904747203084733743578640330169712036 (0xDB9ACF31DEF8526CFCD3049753D6FDA4)
  4. Complete name                            : Zu.The.Warriors.from.the.Magic.Mountain.1983.1080p.BluRay.FLAC1.0.x264-MOMOHD.mkv
  5. Format                                   : Matroska
  6. Format version                           : Version 4
  7. File size                                : 14.2 GiB
  8. Duration                                 : 1 h 38 min
  9. Overall bit rate mode                    : Variable
  10. Overall bit rate                         : 20.6 Mb/s
  11. Movie name                               : Zu The Warriors from the Magic Mountain 1983 [1080p] BluRay FLAC1.0 x264-PTer [iJiA]
  12. Encoded date                             : UTC 2020-05-13 21:24:17
  13. Writing application                      : mkvmerge v37.0.0 ('Leave It') 64-bit
  14. Writing library                          : libebml v1.3.9 + libmatroska v1.5.2
  15. Video
  16. ID                                       : 1
  17. Format                                   : AVC
  18. Format/Info                              : Advanced Video Codec
  19. Format profile                           : [email protected]
  20. Format settings                          : CABAC / 4 Ref Frames
  21. Format settings, CABAC                   : Yes
  22. Format settings, Reference frames        : 4 frames
  23. Codec ID                                 : V_MPEG4/ISO/AVC
  24. Duration                                 : 1 h 38 min
  25. Bit rate                                 : 19.7 Mb/s
  26. Width                                    : 1 920 pixels
  27. Height                                   : 1 040 pixels
  28. Display aspect ratio                     : 1.85:1
  29. Frame rate mode                          : Constant
  30. Frame rate                               : 23.976 (24000/1001/53875) FPS
  31. Color space                              : YUV
  32. Chroma subsampling                       : 4:2:0
  33. Bit depth                                : 8 bits
  34. Scan type                                : Progressive
  35. Bits/(Pixel*Frame)                       : 0.411
  36. Stream size                              : 13.6 GiB (96%)
  37. Title                                    : 1080P Video
  38. Writing library                          : x264 core 158 r2984+47 456d10a t_mod_New [[email protected] X86_64]
  39. Encoding settings                        : cabac=1 / ref=4 / deblock=1:-3:-3 / analyse=0x3:0x133 / me=umh / subme=11 / psy=1 / fade_compensate=0.00 / psy_rd=0.95:0.00 / mixed_ref=1 / me_range=32 / chroma_me=1 / trellis=2 / 8x8dct=1 / cqm=0 / deadzone=21,11 / fast_pskip=0 / chroma_qp_offset=-2 / threads=6 / lookahead_threads=1 / sliced_threads=0 / nr=0 / decimate=0 / interlaced=0 / NTM4NzU= / bluray_compat=0 / constrained_intra=0 / fgo=0 / bframes=12 / b_pyramid=2 / b_adapt=2 / b_bias=0 / direct=3 / weightb=1 / open_gop=0 / weightp=2 / keyint=250 / keyint_min=23 / NTM4NzU=uuDQuD2mJt9fsCf / scenecut=40 / intra_refresh=0 / rc_lookahead=250 / rc=crf / mbtree=0 / crf=19.0000 / qcomp=0.60 / qpmin=0:0:0 / qpmax=69:69:69 / qpstep=4 / vbv_maxrate=62500 / vbv_bufsize=78125 / crf_max=0.0 / nal_hrd=none / filler=0 / NTM4NzU=LmsMAP37EqsCpk / ip_ratio=1.40 / pb_ratio=1.30 / aq=3:0.75 / aq-sensitivity=10.00 / aq-factor=1.00:1.00:1.00 / aq2=0 / aq3=0 / zones=6,635,crf=16
  40. Language                                 : Chinese
  41. Default                                  : Yes
  42. Forced                                   : No
  43. Color range                              : Limited
  44. Color primaries                          : BT.709
  45. Matrix coefficients                      : BT.709
  46. Audio #1
  47. ID                                       : 2
  48. Format                                   : FLAC
  49. Format/Info                              : Free Lossless Audio Codec
  50. Codec ID                                 : A_FLAC
  51. Duration                                 : 1 h 38 min
  52. Bit rate mode                            : Variable
  53. Bit rate                                 : 348 kb/s
  54. Channel(s)                               : 1 channel
  55. Channel layout                           : C
  56. Sampling rate                            : 48.0 kHz
  57. Frame rate                               : 11.719 FPS (4096 SPF)
  58. Bit depth                                : 16 bits
  59. Compression mode                         : Lossless
  60. Stream size                              : 246 MiB (2%)
  61. Title                                    : Chinese Audio
  62. Writing library                          : libFLAC 1.2.1 (UTC 2007-09-17)
  63. Language                                 : Chinese
  64. Default                                  : Yes
  65. Forced                                   : No
  66. Audio #2
  67. ID                                       : 3
  68. Format                                   : FLAC
  69. Format/Info                              : Free Lossless Audio Codec
  70. Codec ID                                 : A_FLAC
  71. Duration                                 : 1 h 38 min
  72. Bit rate mode                            : Variable
  73. Bit rate                                 : 538 kb/s
  74. Channel(s)                               : 2 channels
  75. Channel layout                           : L R
  76. Sampling rate                            : 48.0 kHz
  77. Frame rate                               : 11.719 FPS (4096 SPF)
  78. Bit depth                                : 16 bits
  79. Compression mode                         : Lossless
  80. Stream size                              : 379 MiB (3%)
  81. Title                                    : English Audio
  82. Writing library                          : libFLAC 1.2.1 (UTC 2007-09-17)
  83. Language                                 : English
  84. Default                                  : No
  85. Forced                                   : No
  86. Text #1
  87. ID                                       : 4
  88. Format                                   : UTF-8
  89. Codec ID                                 : S_TEXT/UTF8
  90. Codec ID/Info                            : UTF-8 Plain Text
  91. Duration                                 : 1 h 35 min
  92. Bit rate                                 : 63 b/s
  93. Count of elements                        : 1176
  94. Stream size                              : 44.3 KiB (0%)
  95. Title                                    : English
  96. Language                                 : English
  97. Default                                  : Yes
  98. Forced                                   : No
  99. Text #2
  100. ID                                       : 5
  101. Format                                   : UTF-8
  102. Codec ID                                 : S_TEXT/UTF8
  103. Codec ID/Info                            : UTF-8 Plain Text
  104. Duration                                 : 1 h 35 min
  105. Bit rate                                 : 38 b/s
  106. Count of elements                        : 1041
  107. Stream size                              : 27.2 KiB (0%)
  108. Title                                    : Sim Chinese
  109. Language                                 : Chinese
  110. Default                                  : No
  111. Forced                                   : No
  112. Text #3
  113. ID                                       : 6
  114. Format                                   : UTF-8
  115. Codec ID                                 : S_TEXT/UTF8
  116. Codec ID/Info                            : UTF-8 Plain Text
  117. Duration                                 : 1 h 35 min
  118. Bit rate                                 : 38 b/s
  119. Count of elements                        : 1041
  120. Stream size                              : 27.2 KiB (0%)
  121. Title                                    : Tra Chinese
  122. Language                                 : Chinese
  123. Default                                  : No
  124. Forced                                   : No
  125. Menu
  126. 00:00:00.000                             : en:Chapter 1
  127. 00:11:01.828                             : en:Chapter 2
  128. 00:20:30.438                             : en:Chapter 3
  129. 00:31:41.983                             : en:Chapter 4
  130. 00:38:40.276                             : en:Chapter 5
  131. 00:50:47.586                             : en:Chapter 6
  132. 01:01:34.858                             : en:Chapter 7
  133. 01:09:23.701                             : en:Chapter 8
  134. 01:23:33.342                             : en:Chapter 9
  135. 01:28:55.622                             : en:Chapter 10
复制代码

















保举请利用qBittorrent,utorrent,transmission等标准BT软件下载!以获得最快速度。奉求保种!





回复

使用道具 举报

蓝光币
132
发表于 2022-7-28 00:40:08 | 显示全部楼层

楼主太厉害了!楼主,电影应该很好看我觉得蓝光电影网真是个好地方!
回复 支持 反对

使用道具 举报

懒得打字嘛,点击右侧快捷回复 【右侧内容,后台自定义】
您需要登录后才可以回帖 登录 | 立即加入

本版积分规则

Archiver|小黑屋| 蓝光电影网 |网站地图

Copyright © 2021 Comsenz Inc. Powered by 蓝光电影网

蓝光电影网

本站内容由用户自主分享和转载自互联网,转载目的在于传递更多信息,并不代表本网赞同其观点和对其真实性负责。

如有侵权、违反国家法律政策行为,请联系我们,我们会第一时间及时清除和处理!

举报反馈邮箱:[email protected]

快速回复 返回顶部 返回列表