找回密码

蓝光电影网

查看: 34|回复: 0

[剧情] 大公司小老板[中文字幕].In.Good.Company.2004.1080p.BluRay.DTS.x265-10bit-BATHD 7.93GB

[复制链接]
蓝光币
7
发表于 2022-7-27 02:16:53 | 显示全部楼层 |阅读模式


◎标  题 至公司小老板
◎译  名 上风合作 / 公私好友
◎片  名 In Good Company
◎年  代 2004
◎产  地 美国
◎类  别 剧情 / 笑剧 / 恋爱
◎语  言 英语
◎上映日期 2004-12-06
◎IMDb评分 6.5/10 (55086人评价)
◎IMDb链接 https://www.imdb.com/title/tt0385267/
◎豆瓣评分 6.7/10 (6406人评价)
◎豆瓣链接 https://movie.douban.com/subject/1389918/
◎片  长 USA: 109 分钟
◎导  演 克里斯·韦兹 Chris Weitz
       保罗·韦兹 Paul Weitz
◎编  剧 克里斯·韦兹 Chris Weitz
       保罗·韦兹 Paul Weitz
◎演  员 丹尼斯·奎德 Dennis Quaid
       托弗·戈瑞斯 Topher Grace
       斯嘉丽·约翰逊 Scarlett Johansson
       玛格·海根柏格 Marg Helgenberger
       塞尔玛·布莱尔 Selma Blair
       Katherine Ellis Katherine Ellis
       埃米·阿奎诺 Amy Aquino
       米盖尔·阿尔特塔 Miguel Arteta
       凯文·查普曼 Kevin Chapman
       乔恩·科林·巴克利 Jon Collin Barclay
       马尔科姆·麦克道威尔 Malcolm McDowell
       米夏琳娜·阿尔门多 Michalina Almindo
       莫宾·汗 Mobin Khan
       Richard Hotson Richard Hotson
       洛蕾塔·谢诺斯基 Loretta Shenosky
       菲利普·贝克·霍尔 Philip Baker Hall
       克拉克·格雷格 Clark Gregg
       劳伦·汤姆 Lauren Tom
       泰·布利尔 Ty Burrell
       弗兰基·费森 Frankie Faison
       考林·加普 Colleen Camp
       约翰·赵 John Cho
       大卫·佩默 David Paymer
       Scott Sahadi Scott Sahadi
       罗恩·博蒂塔 Ron Bottitta
       泰德·霍利斯 Ted Hollis
       Trevor Stynes Trevor Stynes
       Nick Schutt Nick Schutt
       弗朗西斯卡·P·罗伯茨 Francesca P. Roberts
       希希尔·库鲁普 Shishir Kurup
       泽娜·格雷 Zena Grey
       恩里克·卡斯蒂略 Enrique Castillo
       克里斯·韦兹 Chris Weitz
       保罗·韦兹 Paul Weitz
       劳伦斯·普莱斯曼 Lawrence Pressman
       Stephen Trask Stephen Trask
       戴米恩·莱斯 Damien Rice
       莱米·阿德法拉希恩 Remi Adefarasin
       迈伦·克尔斯汀 Myron Kerstein
       约瑟夫·米德尔顿 Joseph Middleton
       David Smith David Smith
       威廉·阿诺德 William Arnold
       Molly Maginnis Molly Maginnis
       妮娜·斯玛兹 Nena Smarz
       芭芭拉·奥尔维拉 Barbara Olvera
       Laine Trzinski Laine Trzinski
       罗恩·伯克利 Ron Berkeley
       Tricia Sawyer Tricia Sawyer
       理查德·格雷弗斯 Richard Graves
◎简  介
  51岁的霍丹(丹尼斯•奎德 饰)是一本美国威望杂志的广告部总监,奇迹自得的他家庭也非常完竣。两名女儿很是出色之外,妻子比来又怀孕了。                                    
                                可是,霍丹的生活,由于奇迹上的忽然改变,有了天翻地覆的改变。他的公司被大财团收买了,而他的职位将有一位叫卡达(托弗•戈瑞斯 饰)所替换, 而这位新人只要26岁,没有一点广告经历,这使霍丹生气不已。                                    
                                为了家庭,霍丹不能就此告退。与霍丹相反的是,卡达早已与妻子仳离,了无悬念。两个汉子也起头了办公室里的明争冷战,使人意想不到的是,由于霍丹女儿爱丽斯(斯嘉丽•约翰逊 饰),使两位男士改变了自己的态度……
  1. ##### MediaInfo ######
  2. General
  3. Unique ID                                : 49443976354134246501000994191065962096 (0x2532903F1C762E998B03B3FDBFC75670)
  4. Complete name                            : In.Good.Company.2004.1080p.BluRay.DTS.x265-10bit-BATHD.mkv
  5. Format                                   : Matroska
  6. Format version                           : Version 4
  7. File size                                : 7.93 GiB
  8. Duration                                 : 1 h 49 min
  9. Overall bit rate                         : 10.4 Mb/s
  10. Movie name                               : In Good Company 2004 1080p BluRay DTS x265-10bit-HDS
  11. Encoded date                             : UTC 2022-07-25 04:40:19
  12. Writing application                      : mkvmerge v67.0.0 ('Under Stars') 64-bit
  13. Writing library                          : libebml v1.4.2 + libmatroska v1.6.4
  14. Video
  15. ID                                       : 1
  16. Format                                   : HEVC
  17. Format/Info                              : High Efficiency Video Coding
  18. Format profile                           : Main [email protected]@High
  19. Codec ID                                 : V_MPEGH/ISO/HEVC
  20. Duration                                 : 1 h 49 min
  21. Bit rate                                 : 8 806 kb/s
  22. Width                                    : 1 920 pixels
  23. Height                                   : 1 040 pixels
  24. Display aspect ratio                     : 1.85:1
  25. Frame rate mode                          : Constant
  26. Frame rate                               : 23.976 (24000/1001/53875) FPS
  27. Color space                              : YUV
  28. Chroma subsampling                       : 4:2:0
  29. Bit depth                                : 10 bits
  30. Bits/(Pixel*Frame)                       : 0.184
  31. Stream size                              : 6.74 GiB (85%)
  32. Title                                    : [email protected]
  33. Writing library                          : x265 - H.265/HEVC codec
  34. Default                                  : Yes
  35. Forced                                   : No
  36. Audio
  37. ID                                       : 2
  38. Format                                   : DTS
  39. Format/Info                              : Digital Theater Systems
  40. Codec ID                                 : A_DTS
  41. Duration                                 : 1 h 49 min
  42. Bit rate mode                            : Constant
  43. Bit rate                                 : 1 509 kb/s
  44. Channel(s)                               : 6 channels
  45. Channel layout                           : C L R Ls Rs LFE
  46. Sampling rate                            : 48.0 kHz
  47. Frame rate                               : 93.750 FPS (512 SPF)
  48. Bit depth                                : 24 bits
  49. Compression mode                         : Lossy
  50. Stream size                              : 1.16 GiB (15%)
  51. Title                                    : English
  52. Language                                 : English
  53. Default                                  : Yes
  54. Forced                                   : No
  55. Text #1
  56. ID                                       : 3
  57. Format                                   : PGS
  58. Muxing mode                              : zlib
  59. Codec ID                                 : S_HDMV/PGS
  60. Codec ID/Info                            : Picture based subtitle format used on BDs/HD-DVDs
  61. Duration                                 : 1 h 47 min
  62. Bit rate                                 : 52.3 kb/s
  63. Count of elements                        : 3588
  64. Stream size                              : 40.3 MiB (0%)
  65. Title                                    : CHS&ENG
  66. Language                                 : Chinese
  67. Default                                  : Yes
  68. Forced                                   : No
  69. Text #2
  70. ID                                       : 4
  71. Format                                   : PGS
  72. Muxing mode                              : zlib
  73. Codec ID                                 : S_HDMV/PGS
  74. Codec ID/Info                            : Picture based subtitle format used on BDs/HD-DVDs
  75. Duration                                 : 1 h 48 min
  76. Bit rate                                 : 48.6 kb/s
  77. Count of elements                        : 3016
  78. Stream size                              : 37.7 MiB (0%)
  79. Title                                    : ENG
  80. Language                                 : English
  81. Default                                  : Yes
  82. Forced                                   : No
  83. Menu
  84. 00:00:00.000                             : en:第 01 章
  85. 00:10:00.600                             : en:第 02 章
  86. 00:20:01.200                             : en:第 03 章
  87. 00:30:01.800                             : en:第 04 章
  88. 00:40:02.400                             : en:第 05 章
  89. 00:50:03.000                             : en:第 06 章
  90. 01:00:03.600                             : en:第 07 章
  91. 01:10:04.200                             : en:第 08 章
  92. 01:20:04.800                             : en:第 09 章
  93. 01:30:05.400                             : en:第 10 章
  94. 01:40:06.000                             : en:第 11 章
复制代码

















保举请利用qBittorrent,utorrent,transmission等标准BT软件下载!以获得最快速度。奉求保种!





回复

使用道具 举报

懒得打字嘛,点击右侧快捷回复 【右侧内容,后台自定义】
您需要登录后才可以回帖 登录 | 立即加入

本版积分规则

Archiver|小黑屋| 蓝光电影网 |网站地图

Copyright © 2021 Comsenz Inc. Powered by 蓝光电影网

蓝光电影网

本站内容由用户自主分享和转载自互联网,转载目的在于传递更多信息,并不代表本网赞同其观点和对其真实性负责。

如有侵权、违反国家法律政策行为,请联系我们,我们会第一时间及时清除和处理!

举报反馈邮箱:[email protected]

快速回复 返回顶部 返回列表