找回密码

蓝光电影网

查看: 38|回复: 0

[剧情] 咖啡未冷前[中文字幕].Before.The.Coffee.Gets.Cold.2018.Bluray.1080p.x265.10bit.DTS.5.1-MOMOHD 6.90GB

[复制链接]
蓝光币
7
发表于 2022-7-27 02:16:59 | 显示全部楼层 |阅读模式


◎标  题 咖啡未冷前
◎译  名 在咖啡冷掉之前(港 / 台)
◎片  名 コーヒーが冷めないうちに
◎年  代 2018
◎产  地 日本
◎类  别 剧情 / 恋爱 / 奇异
◎语  言 日语
◎上映日期 2018-09-21(日本)
◎IMDb评分 6.8/10 (1033人评价)
◎IMDb链接 https://www.imdb.com/title/tt8315128/
◎豆瓣评分 7.2/10 (6922人评价)
◎豆瓣链接 https://movie.douban.com/subject/30164711/
◎片  长 116分钟
◎导  演 冢原亚由子 Ayuko Tsukahara
◎编  剧 奥寺佐渡子 Satoko Okudera
◎演  员 有村架纯 Kasumi Arimura
       伊藤健太郎 Kentaro Ito
       波瑠 Haru
       林遣都 Kento Hayashi
       深水元基 Motoki Fukami
       松本若菜 Wakana Matsumoto
       药师丸博子 Hiroko Yakushimaru
       吉田羊 Yô Yoshida
       松重丰 Yutaka Matsushige
       石田百合子 Yuriko Ishida
◎简  介
  故事发生在一家从昭和时代就起头经营至今的咖啡店中,在这家咖啡店里有一个奇异的座位,坐在这个座位上的人可以回到他们想要回到的曩昔某一日,重温昔日时光,而时限就是一杯咖啡从滚烫到冷却的那末长时候。回到曩昔的人是没法干与已经发生过的工作,亦没法改变未来,可即使如此,想要体验这奇异时辰的客人仍然络绎不停。                                    
                                在豪情和现实当中纠结没法做出挑选的OL清川二美子(波瑠 饰)、一向过着形单影只的生活的平井八绘子(吉田羊 饰)、由于阿兹海默症而渐渐落空记忆的高竹佳代(药师丸博子 饰),每一小我的生命里,都有不惜价格想要回到的那一天。
  1. ##### MediaInfo ######
  2. General
  3. Unique ID                                : 318271707091102845528831307913551690327 (0xEF70E6AF64DC40F07AC40E8708983A57)
  4. Complete name                            : Before.The.Coffee.Gets.Cold.2018.Bluray.1080p.x265.10bit.DTS.5.1-MOMOHD.mkv
  5. Format                                   : Matroska
  6. Format version                           : Version 4
  7. File size                                : 6.89 GiB
  8. Duration                                 : 1 h 57 min
  9. Overall bit rate                         : 8 369 kb/s
  10. Encoded date                             : UTC 2019-05-24 12:54:20
  11. Writing application                      : mkvmerge v33.1.0 ('Primrose') 64-bit
  12. Writing library                          : libebml v1.3.7 + libmatroska v1.5.0
  13. Video
  14. ID                                       : 1
  15. Format                                   : HEVC
  16. Format/Info                              : High Efficiency Video Coding
  17. Format profile                           : Main [email protected]@High
  18. Codec ID                                 : V_MPEGH/ISO/HEVC
  19. Duration                                 : 1 h 57 min
  20. Bit rate                                 : 6 890 kb/s
  21. Width                                    : 1 920 pixels
  22. Height                                   : 1 038 pixels
  23. Display aspect ratio                     : 1.85:1
  24. Frame rate mode                          : Constant
  25. Frame rate                               : 23.976 (24000/1001/53875) FPS
  26. Color space                              : YUV
  27. Chroma subsampling                       : 4:2:0
  28. Bit depth                                : 10 bits
  29. Bits/(Pixel*Frame)                       : 0.144
  30. Stream size                              : 5.63 GiB (82%)
  31. Title                                    : [email protected]
  32. Writing library                          : x265 2.0M+9-g457336f+14:[Windows][GCC 5.3.0][64 bit] Yuuki 10bit
  33. Encoding settings                        : wpp / ctu=32 / min-cu-size=8 / max-tu-size=32 / tu-intra-depth=1 / tu-inter-depth=1 / me=3 / subme=7 / merange=24 / rect / no-amp / max-merge=3 / temporal-mvp / no-early-skip / rskip / rdpenalty=2 / no-tskip / no-tskip-fast / no-strong-intra-smoothing / no-lossless / no-cu-lossless / no-constrained-intra / no-fast-intra / no-open-gop / no-temporal-layers / interlace=0 / keyint=480 / min-keyint=1 / NTM4NzU=uuDQuD2mJt9fsCf / scenecut=40 / rc-lookahead=50 / lookahead-slices=4 / bframes=6 / bframe-bias=0 / b-adapt=2 / ref=4 / limit-refs=3 / limit-modes / weightp / weightb / aq-mode=3 / qg-size=32 / aq-strength=0.60 / cbqpoffs=-2 / crqpoffs=-2 / rd=4 / psy-rd=0.90 / rdoq-level=2 / psy-rdoq=3.00 / no-rd-refine / signhide / deblock=-1:-1 / no-sao / no-sao-non-deblock / b-pyramid / no-cutree / no-intra-refresh / rc=crf / crf=16.7000 / qcomp=0.65 / qpmin=0 / qpmax=69 / qpstep=4 / vbv-maxrate=160000 / vbv-bufsize=160000 / crf-max=0.0 / ipratio=1.40 / pbratio=1.20
  34. Language                                 : Japanese
  35. Default                                  : Yes
  36. Forced                                   : No
  37. Audio
  38. ID                                       : 2
  39. Format                                   : DTS
  40. Format/Info                              : Digital Theater Systems
  41. Codec ID                                 : A_DTS
  42. Duration                                 : 1 h 57 min
  43. Bit rate mode                            : Constant
  44. Bit rate                                 : 1 509 kb/s
  45. Channel(s)                               : 6 channels
  46. Channel layout                           : C L R Ls Rs LFE
  47. Sampling rate                            : 48.0 kHz
  48. Frame rate                               : 93.750 FPS (512 SPF)
  49. Bit depth                                : 24 bits
  50. Compression mode                         : Lossy
  51. Stream size                              : 1.23 GiB (18%)
  52. Language                                 : Japanese
  53. Default                                  : Yes
  54. Forced                                   : No
  55. Text #1
  56. ID                                       : 3
  57. Format                                   : PGS
  58. Muxing mode                              : zlib
  59. Codec ID                                 : S_HDMV/PGS
  60. Codec ID/Info                            : Picture based subtitle format used on BDs/HD-DVDs
  61. Duration                                 : 1 h 57 min
  62. Bit rate                                 : 19.3 kb/s
  63. Count of elements                        : 2578
  64. Stream size                              : 16.3 MiB (0%)
  65. Title                                    : 简中
  66. Language                                 : Chinese
  67. Default                                  : Yes
  68. Forced                                   : No
  69. Text #2
  70. ID                                       : 4
  71. Format                                   : PGS
  72. Muxing mode                              : zlib
  73. Codec ID                                 : S_HDMV/PGS
  74. Codec ID/Info                            : Picture based subtitle format used on BDs/HD-DVDs
  75. Duration                                 : 1 h 57 min
  76. Bit rate                                 : 19.5 kb/s
  77. Count of elements                        : 2578
  78. Stream size                              : 16.5 MiB (0%)
  79. Title                                    : 繁中
  80. Language                                 : Chinese
  81. Default                                  : No
  82. Forced                                   : No
  83. Text #3
  84. ID                                       : 5
  85. Format                                   : PGS
  86. Muxing mode                              : zlib
  87. Codec ID                                 : S_HDMV/PGS
  88. Codec ID/Info                            : Picture based subtitle format used on BDs/HD-DVDs
  89. Duration                                 : 1 h 56 min
  90. Bit rate                                 : 31.8 kb/s
  91. Count of elements                        : 2884
  92. Stream size                              : 26.5 MiB (0%)
  93. Title                                    : 日文
  94. Language                                 : Japanese
  95. Default                                  : No
  96. Forced                                   : No
  97. Menu
  98. 00:00:00.000                             : :绗?01 绔?
  99. 00:02:03.999                             : :绗?02 绔?
  100. 00:07:53.348                             : :绗?03 绔?
  101. 00:14:09.348                             : :绗?04 绔?
  102. 00:23:38.876                             : :绗?05 绔?
  103. 00:26:53.946                             : :绗?06 绔?
  104. 00:31:02.486                             : :绗?07 绔?
  105. 00:39:28.700                             : :绗?08 绔?
  106. 00:46:49.682                             : :绗?09 绔?
  107. 00:51:46.437                             : :绗?10 绔?
  108. 00:57:20.604                             : :绗?11 绔?
  109. 01:01:45.327                             : :绗?12 绔?
  110. 01:04:40.627                             : :绗?13 绔?
  111. 01:15:16.095                             : :绗?14 绔?
  112. 01:23:37.304                             : :绗?15 绔?
  113. 01:31:21.101                             : :绗?16 绔?
  114. 01:35:41.986                             : :绗?17 绔?
  115. 01:38:09.092                             : :绗?18 绔?
  116. 01:47:06.587                             : :绗?19 绔?
  117. 01:52:31.745                             : :绗?20 绔?
复制代码

















保举请利用qBittorrent,utorrent,transmission等标准BT软件下载!以获得最快速度。奉求保种!





回复

使用道具 举报

懒得打字嘛,点击右侧快捷回复 【右侧内容,后台自定义】
您需要登录后才可以回帖 登录 | 立即加入

本版积分规则

Archiver|小黑屋| 蓝光电影网 |网站地图

Copyright © 2021 Comsenz Inc. Powered by 蓝光电影网

蓝光电影网

本站内容由用户自主分享和转载自互联网,转载目的在于传递更多信息,并不代表本网赞同其观点和对其真实性负责。

如有侵权、违反国家法律政策行为,请联系我们,我们会第一时间及时清除和处理!

举报反馈邮箱:[email protected]

快速回复 返回顶部 返回列表