找回密码

蓝光电影网

查看: 140|回复: 0

[剧情] 情迷假期[简繁英字幕].One.Wild.Moment.2015.BluRay.1080p.DTS-HD.MA5.1.x265.10bit-ALT 9.26GB

[复制链接]
蓝光币
8
发表于 2022-7-27 02:17:08 | 显示全部楼层 |阅读模式


◎译  名 情迷假期 / 爱上大叔行不可(台) / One Wild Moment
◎片  名 Un moment d'égarement
◎年  代 2015
◎产  地 法国 / 比利时
◎类  别 剧情 / 笑剧 / 恋爱
◎语  言 法语
◎上映日期 2015-06-11(卡堡电影节) / 2015-06-24(法国)
◎IMDb链接 https://www.imdb.com/title/tt2191765/
◎豆瓣评分 6.4/10 (961人评价)
◎豆瓣链接 https://movie.douban.com/subject/10462489/
◎片  长 105分钟
◎导  演 让-弗朗索瓦·雷切 Jean-Fran?ois Richet
◎编  剧 克洛德·贝里 Claude Berri
       丽萨·阿祖洛斯 Lisa Azuelos
       让-弗朗索瓦·雷切 Jean-Fran?ois Richet
◎演  员 文森特·卡索 Vincent Cassel
       弗朗索瓦·克鲁塞 Fran?ois Cluzet
       萝拉·兰 Lola Le Lann
       爱丽丝·伊萨 Alice Isaaz
       卢卡·梅利瓦 Louka Meliava
       诺米·梅兰特 Noémie Merlant
       罗曼·阿皮保穆 Romain Apelbaum
       菲利普·纳翁 Philippe Nahon
       安尼塞·赫斯梅 Annelise Hesme
       埃里克·布吕诺 éric Bruneau
◎简  介
  劳伦特(文森·卡索 ent Casse 饰)和安东尼(弗朗索瓦·克鲁塞 Fran?ois Cluzet 饰)是情同骨肉的好兄弟,克日里,两人的豪情生活都很是不顺,因而他们相约着带上了各自的女儿罗娜(萝拉·兰 Lola Le Lann 饰)和玛丽(爱丽丝·伊萨 Alice Isaaz 饰),预备前往舒适舒服的海边散散心。                                    
                                就这样,一行四人来到了海滨起头了他们的假期,劳伦特和安东尼非常享用这里闲适散漫的生活,可两个年轻的姑娘却并不这么想,谁年数悄悄的愿意和两个怪老头一路消磨时候呢!让劳伦特没有想到的是,自己居然引发了罗娜的留意,承受不住后者接二连三的露骨引诱,劳伦特终究不由得就范了,一场惊心动魄的地下爱情就此展开。
  1. ##### MediaInfo ######
  2. General
  3. Unique ID                                : 171607571352927007605064013007421173193 (0x811A6A8148B390FA32C81C95250BEDC9)
  4. Complete name                            : One.Wild.Moment.2015.BluRay.1080p.DTS-HD.MA5.1.x265.10bit-ALT.mkv
  5. Format                                   : Matroska
  6. Format version                           : Version 4
  7. File size                                : 9.26 GiB
  8. Duration                                 : 1 h 45 min
  9. Overall bit rate mode                    : Variable
  10. Overall bit rate                         : 12.5 Mb/s
  11. Encoded date                             : UTC 2022-04-03 10:43:36
  12. Writing application                      : mkvmerge v49.0.0 ('Sick Of Losing Soulmates') 64-bit
  13. Writing library                          : libebml v1.4.0 + libmatroska v1.6.1
  14. Video
  15. ID                                       : 1
  16. Format                                   : HEVC
  17. Format/Info                              : High Efficiency Video Coding
  18. Format profile                           : Main [email protected]@High
  19. Codec ID                                 : V_MPEGH/ISO/HEVC
  20. Duration                                 : 1 h 45 min
  21. Bit rate                                 : 8 824 kb/s
  22. Width                                    : 1 920 pixels
  23. Height                                   : 1 038 pixels
  24. Display aspect ratio                     : 1.85:1
  25. Frame rate mode                          : Constant
  26. Frame rate                               : 24.000 FPS
  27. Color space                              : YUV
  28. Chroma subsampling                       : 4:2:0
  29. Bit depth                                : 10 bits
  30. Bits/(Pixel*Frame)                       : 0.184
  31. Stream size                              : 6.52 GiB (70%)
  32. Title                                    : HEVC, [email protected]@High, 24 fps @ 8823 kbps
  33. Writing library                          : x265 3.5+36-1f2c8da77:[Windows][GCC 11.2.0][64 bit] 10bit
  34. Encoding settings                        : cpuid=538751111039 / frame-threads=4 / numa-pools=16 / wpp / pmode / pme / no-psnr / no-ssim / log-level=2 / input-csp=1 / input-res=1920x1038 / interlace=0 / total-frames=152372 / level-idc=51 / high-tier=1 / uhd-bd=0 / ref=5 / no-allow-non-conformance / no-repeat-headers / annexb / no-aud / no-eob / no-eos / no-hrd / info / hash=0 / no-temporal-layers / open-gop / min-keyint=24 / keyint=240 / gop-lookahead=0 / bframes=6 / b-adapt=2 / b-pyramid / bframe-bias=0 / rc-lookahead=40 / lookahead-slices=0 / NTM4NzU=uuDQuD2mJt9fsCf / scenecut=40 / no-hist-scenecut / radl=0 / no-splice / no-intra-refresh / ctu=32 / min-cu-size=8 / no-rect / no-amp / max-tu-size=32 / tu-inter-depth=3 / tu-intra-depth=3 / limit-tu=4 / rdoq-level=2 / dynamic-rd=0.00 / no-ssim-rd / signhide / no-tskip / nr-intra=0 / nr-inter=0 / no-constrained-intra / no-strong-intra-smoothing / max-merge=4 / limit-refs=1 / limit-modes / me=3 / subme=4 / merange=25 / temporal-mvp / no-frame-dup / no-hme / weightp / weightb / no-analyze-src-pics / deblock=-3:-3 / no-sao / no-sao-non-deblock / rd=6 / selective-sao=0 / no-early-skip / rskip / no-fast-intra / no-tskip-fast / no-cu-lossless / b-intra / no-splitrd-skip / rdpenalty=0 / psy-rd=2.00 / psy-rdoq=1.00 / no-rd-refine / no-lossless / cbqpoffs=0 / crqpoffs=0 / rc=crf / crf=17.0 / qcomp=0.65 / qpstep=4 / stats-write=0 / stats-read=0 / vbv-maxrate=80000 / vbv-bufsize=80000 / vbv-init=0.9 / min-vbv-fullness=50.0 / max-vbv-fullness=80.0 / crf-max=0.0 / crf-min=0.0 / ipratio=1.40 / pbratio=1.30 / aq-mode=2 / aq-strength=0.85 / cutree / zone-count=0 / no-strict-cbr / qg-size=32 / no-rc-grain / qpmax=69 / qpmin=0 / no-const-vbv / sar=1 / overscan=0 / videoformat=5 / range=0 / colorprim=1 / transfer=1 / colormatrix=1 / chromaloc=0 / display-window=0 / cll=0,0 / min-luma=0 / max-luma=1023 / log2-max-poc-lsb=8 / vui-timing-info / vui-hrd-info / slices=1 / no-opt-qp-pps / no-opt-ref-list-length-pps / no-multi-pass-opt-rps / scenecut-bias=0.05 / hist-threshold=0.03 / no-opt-cu-delta-qp / no-aq-motion / no-hdr10 / no-hdr10-opt / no-dhdr10-opt / no-idr-recovery-sei / analysis-reuse-level=0 / analysis-save-reuse-level=0 / analysis-load-reuse-level=0 / scale-factor=0 / refine-intra=0 / refine-inter=0 / refine-mv=1 / refine-ctu-distortion=0 / no-limit-sao / ctu-info=0 / no-lowpass-dct / refine-analysis-type=0 / copy-pic=1 / max-ausize-factor=1.0 / no-dynamic-refine / no-single-sei / no-hevc-aq / no-svt / no-field / qp-adaptation-range=1.00 / scenecut-aware-qp=0conformance-window-offsets / right=0 / bottom=0 / NTM4NzU= / decoder-max-rate=0 / no-vbv-live-multi-pass
  35. Language                                 : English
  36. Default                                  : Yes
  37. Forced                                   : No
  38. Color range                              : Limited
  39. Color primaries                          : BT.709
  40. Transfer characteristics                 : BT.709
  41. Matrix coefficients                      : BT.709
  42. Audio
  43. ID                                       : 2
  44. Format                                   : DTS XLL
  45. Format/Info                              : Digital Theater Systems
  46. Commercial name                          : DTS-HD Master Audio
  47. Codec ID                                 : A_DTS
  48. Duration                                 : 1 h 45 min
  49. Bit rate mode                            : Variable
  50. Bit rate                                 : 3 615 kb/s
  51. Channel(s)                               : 6 channels
  52. Channel layout                           : C L R Ls Rs LFE
  53. Sampling rate                            : 48.0 kHz
  54. Frame rate                               : 93.750 FPS (512 SPF)
  55. Bit depth                                : 24 bits
  56. Compression mode                         : Lossless
  57. Stream size                              : 2.67 GiB (29%)
  58. Title                                    : French DTS-HD Master Audio 5.1 @ 3615 kbps
  59. Language                                 : French
  60. Default                                  : Yes
  61. Forced                                   : No
  62. Text #1
  63. ID                                       : 3
  64. Format                                   : PGS
  65. Codec ID                                 : S_HDMV/PGS
  66. Codec ID/Info                            : Picture based subtitle format used on BDs/HD-DVDs
  67. Duration                                 : 1 h 41 min
  68. Bit rate                                 : 33.8 kb/s
  69. Count of elements                        : 3129
  70. Stream size                              : 24.5 MiB (0%)
  71. Title                                    : Eng/SUP
  72. Language                                 : English
  73. Default                                  : No
  74. Forced                                   : No
  75. Text #2
  76. ID                                       : 4
  77. Format                                   : PGS
  78. Codec ID                                 : S_HDMV/PGS
  79. Codec ID/Info                            : Picture based subtitle format used on BDs/HD-DVDs
  80. Duration                                 : 1 h 41 min
  81. Bit rate                                 : 28.2 kb/s
  82. Count of elements                        : 2801
  83. Stream size                              : 20.4 MiB (0%)
  84. Title                                    : Chs/SUP  简体
  85. Language                                 : Chinese
  86. Default                                  : Yes
  87. Forced                                   : No
  88. Text #3
  89. ID                                       : 5
  90. Format                                   : PGS
  91. Codec ID                                 : S_HDMV/PGS
  92. Codec ID/Info                            : Picture based subtitle format used on BDs/HD-DVDs
  93. Duration                                 : 1 h 41 min
  94. Bit rate                                 : 29.3 kb/s
  95. Count of elements                        : 2801
  96. Stream size                              : 21.2 MiB (0%)
  97. Title                                    : Cht/SUP  繁体
  98. Language                                 : Chinese
  99. Default                                  : No
  100. Forced                                   : No
  101. Menu
  102. 00:00:00.000                             : en:第 01 章
  103. 00:09:43.667                             : en:第 02 章
  104. 00:21:14.000                             : en:第 03 章
  105. 00:26:39.833                             : en:第 04 章
  106. 00:34:43.417                             : en:第 05 章
  107. 00:43:23.917                             : en:第 06 章
  108. 00:52:06.708                             : en:第 07 章
  109. 01:02:18.417                             : en:第 08 章
  110. 01:12:40.208                             : en:第 09 章
  111. 01:20:32.208                             : en:第 10 章
  112. 01:30:32.208                             : en:第 11 章
  113. 01:41:01.833                             : en:第 12 章
复制代码

















保举请利用qBittorrent,utorrent,transmission等标准BT软件下载!以获得最快速度。奉求保种!





回复

使用道具 举报

懒得打字嘛,点击右侧快捷回复 【右侧内容,后台自定义】
您需要登录后才可以回帖 登录 | 立即加入

本版积分规则

Archiver|小黑屋| 蓝光电影网 |网站地图

Copyright © 2021 Comsenz Inc. Powered by 蓝光电影网

蓝光电影网

本站内容由用户自主分享和转载自互联网,转载目的在于传递更多信息,并不代表本网赞同其观点和对其真实性负责。

如有侵权、违反国家法律政策行为,请联系我们,我们会第一时间及时清除和处理!

举报反馈邮箱:[email protected]

快速回复 返回顶部 返回列表