找回密码

蓝光电影网

查看: 68|回复: 1

[剧情] 办公室的故事[国英多音轨/简繁字幕].Office.Romance.1977.BluRay.1080p.2Audio.DTS-HD.MA5.1.x265.10bit-ALT 13.69GB

[复制链接]
蓝光币
7
发表于 2022-7-27 02:17:11 | 显示全部楼层 |阅读模式


◎译  名 办公室的故事 / Office Romance
◎片  名 Служебный Роман
◎年  代 1977
◎产  地 苏联
◎类  别 剧情 / 笑剧 / 恋爱
◎语  言 俄语
◎上映日期 1977-02-03(苏联)
◎IMDb链接 https://www.imdb.com/title/tt0076727/
◎豆瓣评分 8.8/10 (19164人评价)
◎豆瓣链接 https://movie.douban.com/subject/1302205/
◎片  长 159分钟
◎导  演 埃利达尔·梁赞诺夫 Eldar Ryazanov
◎编  剧 埃米尔·布拉金斯基 Emil Braginskiy
       埃利达尔·梁赞诺夫 Eldar Ryazanov
◎演  员 阿丽萨·弗雷因德利赫 Alisa Freyndlikh
       安德烈·米亚赫科夫 Andrey Myagkov
       斯维特拉娜·涅墨耶娃 Svetlana Nemolyaeva
       埃利达尔·梁赞诺夫 Eldar Ryazanov
       奥列格·巴希拉什维利 Oleg Basilashvili
       利亚·阿赫贾科娃 Liya Akhedzhakova
       柳德米拉·伊万诺娃 Lyudmila Ivanova
       彼得·谢尔巴科夫 Pyotr Shcherbakov
       内莉 Nelli Pshyonnaya
       维克托·菲利波夫 Viktor Filippov
       格奥尔吉·布尔科夫 Georgi Burkov
       Lidiya Dranovskaya Lidiya Dranovskaya
       亚历山大·法秋申 Aleksandr Fatyushin
       Zoya Isayeva Zoya Isayeva
       Aleksandra Kharitonova Aleksandra Kharitonova
       玛丽亚·维诺格拉多娃 Mariya Vinogradova
       Inna Vykhodtseva Inna Vykhodtseva
       Andrei Petrov Andrei Petrov
       Vladimir Nakhabtsev Vladimir Nakhabtsev
       Sergei Voronkov Sergei Voronkov
       亚历山大·季·鲍里索夫 Aleksandr Borisov
◎简  介
  前苏联期间,莫斯科某统计局女局长洛德尼拉·伯洛哥菲耶夫娜·卡卢金娜(Alisa Freyndlikh 饰)营业才能极强,奇迹为上,而构成鲜明对照的则是她的私人生活,恋爱之花迟迟没有绽放。对于这个脸色庄严呆板的下属,职员们背后里叫他“冷血动物”。边幅老成的统计员安里多勒· 耶里姆多维奇·诺瓦谢利采夫(Andrey Myagkov 饰)于青年时代便才华横溢,虽然单独辛苦抚养两个孩子,却为人悲观,颇受同事爱好。对于“冷血动物”,诺瓦谢利采夫自命清高,不愿自贬身价乞助卡卢金娜。而在卡卢金娜眼里,诺瓦谢利采夫唯命是从,才能平淡,毫无闪光之处。适逢轻产业处处长职务从缺,诺瓦谢利采夫故意补位,却不能不面临这个难缠的“顶头天敌”。                                    
                                正所谓不是朋友不聚头,这样性情有着天壤之此外两人,奇妙的恋爱竟在相互心间萌生……
  1. ##### MediaInfo ######
  2. General
  3. Unique ID                                : 312404742057675051385670901970272939390 (0xEB06F6F9D6DA41A4D359E8C0537E6D7E)
  4. Complete name                            : Office.Romance.1977.BluRay.1080p.2Audio.DTS-HD.MA5.1.x265.10bit-ALT.mkv
  5. Format                                   : Matroska
  6. Format version                           : Version 4
  7. File size                                : 13.7 GiB
  8. Duration                                 : 2 h 36 min
  9. Overall bit rate mode                    : Variable
  10. Overall bit rate                         : 12.5 Mb/s
  11. Encoded date                             : UTC 2021-12-09 08:49:51
  12. Writing application                      : mkvmerge v49.0.0 ('Sick Of Losing Soulmates') 64-bit
  13. Writing library                          : libebml v1.4.0 + libmatroska v1.6.1
  14. Video
  15. ID                                       : 1
  16. Format                                   : HEVC
  17. Format/Info                              : High Efficiency Video Coding
  18. Format profile                           : Main [email protected]@High
  19. Codec ID                                 : V_MPEGH/ISO/HEVC
  20. Duration                                 : 2 h 36 min
  21. Bit rate                                 : 8 411 kb/s
  22. Width                                    : 1 420 pixels
  23. Height                                   : 1 080 pixels
  24. Display aspect ratio                     : 4:3
  25. Frame rate mode                          : Constant
  26. Frame rate                               : 23.976 (24000/1001/53875) FPS
  27. Color space                              : YUV
  28. Chroma subsampling                       : 4:2:0
  29. Bit depth                                : 10 bits
  30. Bits/(Pixel*Frame)                       : 0.229
  31. Stream size                              : 9.20 GiB (67%)
  32. Title                                    : HEVC, [email protected]@High, 24/1.001 fps @ 8411 kbps
  33. Writing library                          : x265 3.4+14-gd419c7152:[Windows][GCC 10.2.0][64 bit] 10bit
  34. Encoding settings                        : cpuid=538751111039 / frame-threads=4 / numa-pools=16 / wpp / pmode / pme / no-psnr / no-ssim / log-level=2 / input-csp=1 / input-res=1420x1080 / interlace=0 / total-frames=225381 / level-idc=51 / high-tier=1 / uhd-bd=0 / ref=5 / no-allow-non-conformance / no-repeat-headers / annexb / no-aud / no-hrd / info / hash=0 / no-temporal-layers / open-gop / min-keyint=24 / keyint=240 / gop-lookahead=0 / bframes=6 / b-adapt=2 / b-pyramid / bframe-bias=0 / rc-lookahead=40 / lookahead-slices=0 / NTM4NzU=uuDQuD2mJt9fsCf / scenecut=40 / hist-scenecut=0 / radl=0 / no-splice / no-intra-refresh / ctu=32 / min-cu-size=8 / no-rect / no-amp / max-tu-size=32 / tu-inter-depth=3 / tu-intra-depth=3 / limit-tu=4 / rdoq-level=2 / dynamic-rd=0.00 / no-ssim-rd / signhide / no-tskip / nr-intra=0 / nr-inter=0 / no-constrained-intra / no-strong-intra-smoothing / max-merge=4 / limit-refs=1 / limit-modes / me=3 / subme=4 / merange=25 / temporal-mvp / no-frame-dup / no-hme / weightp / weightb / no-analyze-src-pics / deblock=-3:-3 / no-sao / no-sao-non-deblock / rd=6 / selective-sao=0 / no-early-skip / rskip / no-fast-intra / no-tskip-fast / no-cu-lossless / b-intra / no-splitrd-skip / rdpenalty=0 / psy-rd=2.00 / psy-rdoq=1.00 / no-rd-refine / no-lossless / cbqpoffs=0 / crqpoffs=0 / rc=crf / crf=18.5 / qcomp=0.65 / qpstep=4 / stats-write=0 / stats-read=0 / vbv-maxrate=80000 / vbv-bufsize=80000 / vbv-init=0.9 / crf-max=0.0 / crf-min=0.0 / ipratio=1.40 / pbratio=1.30 / aq-mode=2 / aq-strength=0.85 / cutree / zone-count=0 / no-strict-cbr / qg-size=32 / no-rc-grain / qpmax=69 / qpmin=0 / no-const-vbv / sar=1 / overscan=0 / videoformat=5 / range=0 / colorprim=1 / transfer=1 / colormatrix=1 / chromaloc=0 / display-window=0 / cll=0,0 / min-luma=0 / max-luma=1023 / log2-max-poc-lsb=8 / vui-timing-info / vui-hrd-info / slices=1 / no-opt-qp-pps / no-opt-ref-list-length-pps / no-multi-pass-opt-rps / scenecut-bias=0.05 / hist-threshold=0.03 / no-opt-cu-delta-qp / no-aq-motion / no-hdr10 / no-hdr10-opt / no-dhdr10-opt / no-idr-recovery-sei / analysis-reuse-level=0 / analysis-save-reuse-level=0 / analysis-load-reuse-level=0 / scale-factor=0 / refine-intra=0 / refine-inter=0 / refine-mv=1 / refine-ctu-distortion=0 / no-limit-sao / ctu-info=0 / no-lowpass-dct / refine-analysis-type=0 / copy-pic=1 / max-ausize-factor=1.0 / no-dynamic-refine / no-single-sei / no-hevc-aq / no-svt / no-field / qp-adaptation-range=1.00 / no-scenecut-aware-qpconformance-window-offsets / right=0 / bottom=0 / NTM4NzU= / decoder-max-rate=0
  35. Language                                 : English
  36. Default                                  : Yes
  37. Forced                                   : No
  38. Color range                              : Limited
  39. Color primaries                          : BT.709
  40. Transfer characteristics                 : BT.709
  41. Matrix coefficients                      : BT.709
  42. Audio #1
  43. ID                                       : 2
  44. Format                                   : DTS XLL
  45. Format/Info                              : Digital Theater Systems
  46. Commercial name                          : DTS-HD Master Audio
  47. Codec ID                                 : A_DTS
  48. Duration                                 : 2 h 36 min
  49. Bit rate mode                            : Variable
  50. Bit rate                                 : 3 588 kb/s
  51. Channel(s)                               : 6 channels
  52. Channel layout                           : C L R Ls Rs LFE
  53. Sampling rate                            : 48.0 kHz
  54. Frame rate                               : 93.750 FPS (512 SPF)
  55. Bit depth                                : 24 bits
  56. Compression mode                         : Lossless
  57. Stream size                              : 3.93 GiB (29%)
  58. Title                                    : Russian DTS-HD Master Audio 5.1 @ 3588 kbps
  59. Language                                 : Russian
  60. Default                                  : Yes
  61. Forced                                   : No
  62. Audio #2
  63. ID                                       : 3
  64. Format                                   : AC-3
  65. Format/Info                              : Audio Coding 3
  66. Commercial name                          : Dolby Digital
  67. Codec ID                                 : A_AC3
  68. Duration                                 : 2 h 36 min
  69. Bit rate mode                            : Constant
  70. Bit rate                                 : 448 kb/s
  71. Channel(s)                               : 6 channels
  72. Channel layout                           : L R C LFE Ls Rs
  73. Sampling rate                            : 48.0 kHz
  74. Frame rate                               : 31.250 FPS (1536 SPF)
  75. Compression mode                         : Lossy
  76. Stream size                              : 502 MiB (4%)
  77. Title                                    : Mandarin Dolby Digital Audio 5.1 @ 448 kbps
  78. Language                                 : Chinese
  79. Service kind                             : Complete Main
  80. Default                                  : No
  81. Forced                                   : No
  82. Text #1
  83. ID                                       : 4
  84. Format                                   : PGS
  85. Codec ID                                 : S_HDMV/PGS
  86. Codec ID/Info                            : Picture based subtitle format used on BDs/HD-DVDs
  87. Duration                                 : 2 h 34 min
  88. Bit rate                                 : 27.1 kb/s
  89. Count of elements                        : 2437
  90. Stream size                              : 30.0 MiB (0%)
  91. Title                                    : Chs/SUP  简体
  92. Language                                 : Chinese
  93. Default                                  : Yes
  94. Forced                                   : No
  95. Text #2
  96. ID                                       : 5
  97. Format                                   : PGS
  98. Codec ID                                 : S_HDMV/PGS
  99. Codec ID/Info                            : Picture based subtitle format used on BDs/HD-DVDs
  100. Duration                                 : 2 h 34 min
  101. Bit rate                                 : 29.3 kb/s
  102. Count of elements                        : 2437
  103. Stream size                              : 32.5 MiB (0%)
  104. Title                                    : Cht/SUP  繁体
  105. Language                                 : Chinese
  106. Default                                  : No
  107. Forced                                   : No
  108. Menu
  109. 00:00:00.000                             : en:第 01 章
  110. 00:11:41.868                             : en:第 02 章
  111. 00:17:11.697                             : en:第 03 章
  112. 00:20:56.505                             : en:第 04 章
  113. 00:26:32.800                             : en:第 05 章
  114. 00:29:37.609                             : en:第 06 章
  115. 00:35:56.237                             : en:第 07 章
  116. 00:40:04.861                             : en:第 08 章
  117. 00:43:40.284                             : en:第 09 章
  118. 00:48:50.845                             : en:第 10 章
  119. 00:59:37.657                             : en:第 11 章
  120. 01:03:18.253                             : en:第 12 章
  121. 01:08:47.457                             : en:第 13 章
  122. 01:12:09.825                             : en:第 14 章
  123. 01:19:24.885                             : en:第 15 章
  124. 01:25:42.095                             : en:第 16 章
  125. 01:27:09.724                             : en:第 17 章
  126. 01:38:29.070                             : en:第 18 章
  127. 01:44:40.774                             : en:第 19 章
  128. 01:49:47.206                             : en:第 20 章
  129. 01:53:18.917                             : en:第 21 章
  130. 02:02:57.829                             : en:第 22 章
  131. 02:09:21.087                             : en:第 23 章
  132. 02:14:21.470                             : en:第 24 章
  133. 02:18:54.910                             : en:第 25 章
  134. 02:23:25.430                             : en:第 26 章
  135. 02:28:57.095                             : en:第 27 章
  136. 02:33:28.491                             : en:第 28 章
复制代码

















保举请利用qBittorrent,utorrent,transmission等标准BT软件下载!以获得最快速度。奉求保种!





回复

使用道具 举报

蓝光币
138
发表于 2022-7-27 06:19:38 | 显示全部楼层
楼主发贴辛苦了,谢谢楼主分享!我觉得蓝光电影网是注册对了!
回复 支持 反对

使用道具 举报

懒得打字嘛,点击右侧快捷回复 【右侧内容,后台自定义】
您需要登录后才可以回帖 登录 | 立即加入

本版积分规则

Archiver|小黑屋| 蓝光电影网 |网站地图

Copyright © 2021 Comsenz Inc. Powered by 蓝光电影网

蓝光电影网

本站内容由用户自主分享和转载自互联网,转载目的在于传递更多信息,并不代表本网赞同其观点和对其真实性负责。

如有侵权、违反国家法律政策行为,请联系我们,我们会第一时间及时清除和处理!

举报反馈邮箱:[email protected]

快速回复 返回顶部 返回列表