找回密码

蓝光电影网

查看: 66|回复: 2

[剧情] 银魂2[简繁字幕].Gintama.2.2018.BluRay.1080p.x265.10bit.DDP.5.1-MiniHD 6.06GB

[复制链接]
蓝光币
7
发表于 2022-7-27 02:17:41 | 显示全部楼层 |阅读模式


◎标  题 银魂2
◎译  名 银魂2:法则是用来打破的 / 规定就是为了被打破而存在的 / Gintama 2
◎片  名 銀魂2 掟は破るためにこそある
◎年  代 2018
◎产  地 日本
◎类  别 笑剧 / 行动 / 冒险
◎语  言 日语
◎上映日期 2018-08-17(日本)
◎IMDb评分 6.3/10 (988人评价)
◎IMDb链接 https://www.imdb.com/title/tt7639528/
◎豆瓣评分 7.3/10 (36612人评价)
◎豆瓣链接 https://movie.douban.com/subject/27199577/
◎片  长 135分钟
◎导  演 福田雄一 Yûichi Fukuda
◎编  剧 福田雄一 Yûichi Fukuda
       空知英秋 Hideaki Sorachi
◎演  员 小栗旬 Shun Oguri
       菅田将晖 Masaki Suda
       桥本环奈 Kanna Hashimoto
       柳乐优弥 Yûya Yagira
       吉泽亮 Yoshizawa Ryo
       三浦春马 Haruma Miura
       洼田正孝 Masataka Kubota
       室毅 Tsuyoshi Muro
       长泽雅美 Masami Nagasawa
       冈田将生 Masaki Okada
       木村绿子 Midoriko Kimura
       佐藤二朗 Jirô Satô
       中村勘九郎 Kantarou Nakamura
       堂本刚 Tsuyoshi Dômoto
       堤真一 Shin'ichi Tsutsumi
       胜地凉 Ryo Katsuji
       夏菜 Natsuna
       户塚纯贵 Junki Tozuka
       立木文彦 Fumihiko Tachiki
       一之濑亘 Wataru Ichinose
       大智 Daichi
       山田孝之 Yamada Takayuki
       六角精儿 Seiji Rokkaku
       白鸟玉季 Tamaki Shiratori
◎标  签 日本 / 银魂 / 漫画改编 / 笑剧 / 真人化 / 漫改 / 搞笑 / 2018
◎简  介
  位于歌舞伎町一隅的万事屋,坂田银时(小栗旬 饰)、志村新八(菅田将晖 饰)和神乐(桥本环奈 饰)由于没钱交房租而焦头烂额,因而三人只得外出打工。他们先是去夜总会担任女招待,以后又姑且充任剃头师,可好死不死都碰上了微服出访的将军大人德川茂茂(胜地凉 饰),令他们小心翼翼,小心翼翼。另一方面,真选组土方十四郎(柳乐优弥 饰)遭伊东鸭太郎(三浦春马 饰)暗害,从刚硬坚毅的军人酿成了柔弱怯懦的御宅族,终极被真选组扫地出门。在此以后,伊东结合鬼兵队,策划足以倾覆江户政府的大诡计……                                    
                                本片按照空知英秋的超人气漫画改编改编,是同系列真人电影的第二部,此次的故事按照“将军接待篇”和“真选组骚乱篇”改编。
  1. ##### MediaInfo ######
  2. General
  3. Unique ID                                : 181155764421689117316536384608925883305 (0x884954C4EC54C804CDF79C53F5939BA9)
  4. Complete name                            : Gintama.2.2018.BluRay.1080p.x265.10bit.DDP.5.1-MiniHD.mkv
  5. Format                                   : Matroska
  6. Format version                           : Version 4
  7. File size                                : 6.06 GiB
  8. Duration                                 : 2 h 14 min
  9. Overall bit rate                         : 6 439 kb/s
  10. Movie name                               : Gintama 2 [2018] Blueray 1080p - FRDS
  11. Encoded date                             : UTC 2021-04-20 12:19:43
  12. Writing application                      : mkvmerge v56.0.0 ('Strasbourg / St. Denis') 64-bit
  13. Writing library                          : libebml v1.4.2 + libmatroska v1.6.4
  14. Cover                                    : Yes
  15. Attachments                              : cover.jpg
  16. Video
  17. ID                                       : 1
  18. Format                                   : HEVC
  19. Format/Info                              : High Efficiency Video Coding
  20. Format profile                           : Main [email protected]@High
  21. Codec ID                                 : V_MPEGH/ISO/HEVC
  22. Duration                                 : 2 h 14 min
  23. Bit rate                                 : 5 324 kb/s
  24. Width                                    : 1 920 pixels
  25. Height                                   : 1 080 pixels
  26. Display aspect ratio                     : 16:9
  27. Frame rate mode                          : Constant
  28. Frame rate                               : 23.976 (24000/1001/53875) FPS
  29. Color space                              : YUV
  30. Chroma subsampling                       : 4:2:0
  31. Bit depth                                : 10 bits
  32. Bits/(Pixel*Frame)                       : 0.107
  33. Stream size                              : 5.01 GiB (83%)
  34. Writing library                          : x265 3.4+33-606265ac7:[Windows][MSVC 1928][64 bit] 10bit
  35. Encoding settings                        : cpuid=538751111039 / frame-threads=3 / numa-pools=14 / wpp / pmode / no-pme / no-psnr / no-ssim / log-level=2 / input-csp=1 / input-res=1920x1080 / interlace=0 / total-frames=193780 / level-idc=0 / high-tier=1 / uhd-bd=0 / ref=4 / no-allow-non-conformance / no-repeat-headers / annexb / no-aud / no-hrd / info / hash=0 / no-temporal-layers / no-open-gop / min-keyint=1 / keyint=250 / gop-lookahead=0 / bframes=6 / b-adapt=2 / b-pyramid / bframe-bias=0 / rc-lookahead=80 / lookahead-slices=0 / NTM4NzU=uuDQuD2mJt9fsCf / scenecut=40 / hist-scenecut=0 / radl=0 / no-splice / no-intra-refresh / ctu=32 / min-cu-size=8 / no-rect / no-amp / max-tu-size=32 / tu-inter-depth=4 / tu-intra-depth=4 / limit-tu=0 / rdoq-level=2 / dynamic-rd=0.00 / no-ssim-rd / signhide / no-tskip / nr-intra=0 / nr-inter=0 / no-constrained-intra / strong-intra-smoothing / max-merge=5 / limit-refs=0 / no-limit-modes / me=3 / subme=7 / merange=44 / temporal-mvp / no-frame-dup / no-hme / weightp / weightb / no-analyze-src-pics / deblock=-3:-3 / no-sao / no-sao-non-deblock / rd=4 / selective-sao=0 / no-early-skip / no-rskip / no-fast-intra / no-tskip-fast / no-cu-lossless / b-intra / no-splitrd-skip / rdpenalty=0 / psy-rd=1.50 / psy-rdoq=1.00 / no-rd-refine / no-lossless / cbqpoffs=-2 / crqpoffs=-2 / rc=crf / crf=22.0 / qcomp=0.65 / qpstep=4 / stats-write=0 / stats-read=0 / vbv-maxrate=160000 / vbv-bufsize=160000 / vbv-init=0.9 / min-vbv-fullness=50.0 / max-vbv-fullness=80.0 / crf-max=0.0 / crf-min=0.0 / ipratio=1.30 / pbratio=1.20 / aq-mode=2 / aq-strength=0.90 / no-cutree / zone-count=0 / no-strict-cbr / qg-size=8 / no-rc-grain / qpmax=69 / qpmin=0 / no-const-vbv / sar=0 / overscan=0 / videoformat=5 / range=0 / colorprim=1 / transfer=1 / colormatrix=1 / chromaloc=0 / display-window=0 / cll=0,0 / min-luma=0 / max-luma=1023 / log2-max-poc-lsb=8 / vui-timing-info / vui-hrd-info / slices=1 / no-opt-qp-pps / no-opt-ref-list-length-pps / no-multi-pass-opt-rps / scenecut-bias=0.05 / hist-threshold=0.03 / no-opt-cu-delta-qp / no-aq-motion / no-hdr10 / no-hdr10-opt / no-dhdr10-opt / no-idr-recovery-sei / analysis-reuse-level=0 / analysis-save-reuse-level=0 / analysis-load-reuse-level=0 / scale-factor=0 / refine-intra=0 / refine-inter=0 / refine-mv=1 / refine-ctu-distortion=0 / no-limit-sao / ctu-info=0 / no-lowpass-dct / refine-analysis-type=0 / copy-pic=1 / max-ausize-factor=1.0 / no-dynamic-refine / no-single-sei / no-hevc-aq / no-svt / no-field / qp-adaptation-range=1.00 / scenecut-aware-qp=0conformance-window-offsets / right=0 / bottom=0 / NTM4NzU= / decoder-max-rate=0 / no-vbv-live-multi-pass
  36. Default                                  : Yes
  37. Forced                                   : No
  38. Color range                              : Limited
  39. Color primaries                          : BT.709
  40. Transfer characteristics                 : BT.709
  41. Matrix coefficients                      : BT.709
  42. Audio
  43. ID                                       : 2
  44. Format                                   : E-AC-3
  45. Format/Info                              : Enhanced AC-3
  46. Commercial name                          : Dolby Digital Plus
  47. Codec ID                                 : A_EAC3
  48. Duration                                 : 2 h 14 min
  49. Bit rate mode                            : Constant
  50. Bit rate                                 : 1 023 kb/s
  51. Channel(s)                               : 6 channels
  52. Channel layout                           : L R C LFE Ls Rs
  53. Sampling rate                            : 48.0 kHz
  54. Frame rate                               : 93.750 FPS (512 SPF)
  55. Compression mode                         : Lossy
  56. Stream size                              : 986 MiB (16%)
  57. Language                                 : Japanese
  58. Service kind                             : Complete Main
  59. Default                                  : Yes
  60. Forced                                   : No
  61. Text #1
  62. ID                                       : 3
  63. ID in the original source medium         : 4608 (0x1200)
  64. Format                                   : PGS
  65. Muxing mode                              : zlib
  66. Codec ID                                 : S_HDMV/PGS
  67. Codec ID/Info                            : Picture based subtitle format used on BDs/HD-DVDs
  68. Duration                                 : 2 h 9 min
  69. Bit rate                                 : 26.3 kb/s
  70. Count of elements                        : 3242
  71. Stream size                              : 24.4 MiB (0%)
  72. Title                                    : chs
  73. Language                                 : Chinese
  74. Default                                  : Yes
  75. Forced                                   : No
  76. Original source medium                   : Blu-ray
  77. Text #2
  78. ID                                       : 4
  79. ID in the original source medium         : 4609 (0x1201)
  80. Format                                   : PGS
  81. Muxing mode                              : zlib
  82. Codec ID                                 : S_HDMV/PGS
  83. Codec ID/Info                            : Picture based subtitle format used on BDs/HD-DVDs
  84. Duration                                 : 2 h 9 min
  85. Bit rate                                 : 26.7 kb/s
  86. Count of elements                        : 3242
  87. Stream size                              : 24.8 MiB (0%)
  88. Title                                    : cht
  89. Language                                 : Chinese
  90. Default                                  : No
  91. Forced                                   : No
  92. Original source medium                   : Blu-ray
  93. Text #3
  94. ID                                       : 5
  95. ID in the original source medium         : 4610 (0x1202)
  96. Format                                   : PGS
  97. Muxing mode                              : zlib
  98. Codec ID                                 : S_HDMV/PGS
  99. Codec ID/Info                            : Picture based subtitle format used on BDs/HD-DVDs
  100. Duration                                 : 2 h 9 min
  101. Bit rate                                 : 31.2 kb/s
  102. Count of elements                        : 3242
  103. Stream size                              : 29.0 MiB (0%)
  104. Title                                    : chs
  105. Language                                 : Chinese
  106. Default                                  : No
  107. Forced                                   : No
  108. Original source medium                   : Blu-ray
  109. Text #4
  110. ID                                       : 6
  111. ID in the original source medium         : 4611 (0x1203)
  112. Format                                   : PGS
  113. Muxing mode                              : zlib
  114. Codec ID                                 : S_HDMV/PGS
  115. Codec ID/Info                            : Picture based subtitle format used on BDs/HD-DVDs
  116. Duration                                 : 2 h 9 min
  117. Bit rate                                 : 32.6 kb/s
  118. Count of elements                        : 3242
  119. Stream size                              : 30.3 MiB (0%)
  120. Title                                    : cht
  121. Language                                 : Chinese
  122. Default                                  : No
  123. Forced                                   : No
  124. Original source medium                   : Blu-ray
  125. Text #5
  126. ID                                       : 7
  127. ID in the original source medium         : 4612 (0x1204)
  128. Format                                   : PGS
  129. Muxing mode                              : zlib
  130. Codec ID                                 : S_HDMV/PGS
  131. Codec ID/Info                            : Picture based subtitle format used on BDs/HD-DVDs
  132. Duration                                 : 2 h 13 min
  133. Bit rate                                 : 56.4 kb/s
  134. Count of elements                        : 4363
  135. Stream size                              : 54.1 MiB (1%)
  136. Language                                 : Japanese
  137. Default                                  : No
  138. Forced                                   : No
  139. Original source medium                   : Blu-ray
  140. Menu
  141. 00:00:00.000                             : CHAPTER:01
  142. 00:06:33.393                             : CHAPTER:02
  143. 00:20:15.672                             : CHAPTER:03
  144. 00:31:06.239                             : CHAPTER:04
  145. 00:43:58.010                             : CHAPTER:05
  146. 01:02:27.535                             : CHAPTER:06
  147. 01:20:45.924                             : CHAPTER:07
  148. 01:29:40.750                             : CHAPTER:08
  149. 01:41:02.806                             : CHAPTER:09
  150. 01:48:06.646                             : CHAPTER:10
  151. 02:06:34.962                             : CHAPTER:11
  152. 02:09:54.620                             : CHAPTER:12
复制代码



保举请利用qBittorrent,utorrent,transmission等标准BT软件下载!以获得最快速度。奉求保种!





回复

使用道具 举报

蓝光币
2
发表于 2022-7-27 14:17:30 | 显示全部楼层
楼主发贴辛苦了,谢谢楼主分享!我觉得蓝光电影网是注册对了!
回复 支持 反对

使用道具 举报

蓝光币
15
发表于 2022-7-27 22:42:30 | 显示全部楼层

楼主太厉害了!楼主,电影应该很好看我觉得蓝光电影网真是个好地方!
回复 支持 反对

使用道具 举报

懒得打字嘛,点击右侧快捷回复 【右侧内容,后台自定义】
您需要登录后才可以回帖 登录 | 立即加入

本版积分规则

Archiver|小黑屋| 蓝光电影网 |网站地图

Copyright © 2021 Comsenz Inc. Powered by 蓝光电影网

蓝光电影网

本站内容由用户自主分享和转载自互联网,转载目的在于传递更多信息,并不代表本网赞同其观点和对其真实性负责。

如有侵权、违反国家法律政策行为,请联系我们,我们会第一时间及时清除和处理!

举报反馈邮箱:[email protected]

快速回复 返回顶部 返回列表